<?xml version="1.0" standalone="no"?>
<!DOCTYPE svg PUBLIC "-//W3C//DTD SVG 1.1//EN" "http://www.w3.org/Graphics/SVG/1.1/DTD/svg11.dtd" >
<svg xmlns="http://www.w3.org/2000/svg" xmlns:xlink="http://www.w3.org/1999/xlink" version="1.1">
<metadata>
Created by FontForge 20170812 at Sun Aug  7 16:33:52 2022
 By www-data
</metadata>
<defs>
<font id="BackToFamilyRegular" horiz-adv-x="0" >
  <font-face 
    font-family="Back To Family"
    font-weight="400"
    font-stretch="normal"
    units-per-em="1000"
    panose-1="0 0 0 0 0 0 0 0 0 0"
    ascent="800"
    descent="-200"
    x-height="233.825"
    cap-height="656.974"
    bbox="-232.001 -650.824 1436.16 1079.02"
    underline-thickness="50"
    underline-position="-100"
    unicode-range="U+000A-20AC"
  />
<missing-glyph horiz-adv-x="527" 
d="M50 700h427v-700h-427v700zM78 680l185 -309l186 309h-371zM251 350l-180 300v-601zM264 329l-185 -308h370zM276 350l181 -303v605z" />
    <glyph glyph-name=".notdef" horiz-adv-x="527" 
d="M50 700h427v-700h-427v700zM78 680l185 -309l186 309h-371zM251 350l-180 300v-601zM264 329l-185 -308h370zM276 350l181 -303v605z" />
    <glyph glyph-name=".null" 
 />
    <glyph glyph-name=".null" 
 />
    <glyph glyph-name="LF" unicode="&#xa;" 
 />
    <glyph glyph-name="controlCR" unicode="&#xd;" 
 />
    <glyph glyph-name="space" unicode=" " horiz-adv-x="419" 
 />
    <glyph glyph-name="exclam" unicode="!" horiz-adv-x="181" 
d="M85.2607 631.36c2.19434 29.1934 46.6836 29.8838 45.999 0c-4.84668 -211.424 -12.0762 -424.12 -27.0371 -635.08c-2.44727 -34.4717 -55.1631 -35.1621 -54.209 0c5.74121 211.548 19.3916 424.061 35.2471 635.08zM70.7695 -67.7832
c11.4775 5.86035 24.9912 0.873047 28.8623 -11.7422c5.4502 -17.7266 2.56543 -40.4287 2.16602 -58.7324c-0.679688 -31.167 -49.3682 -31.124 -48.3975 0c0.376953 12.0605 0.743164 24.1582 1.75684 36.1865c1.12109 13.2842 2.3125 27.4951 15.6123 34.2881z" />
    <glyph glyph-name="quotedbl" unicode="&#x22;" horiz-adv-x="273" 
d="M106.394 517.319c17.8887 23.6191 58.2734 1.52637 40.6924 -23.791c-20.7676 -29.9053 -37.3672 -61.2285 -48.5645 -95.9375c-9.65039 -29.9219 -57.1309 -16.8643 -47.1514 12.998c12.7988 38.2939 30.6064 74.4912 55.0234 106.73zM208.708 515.87
c15.4512 -2.88477 18.0977 -23.0371 8.75488 -33.1562c-10.1787 -11.0195 -14.9873 -33.1777 -20.1465 -47.4541c-6.19434 -17.1338 -11.1436 -34.6445 -15.4346 -52.3438c-7.18652 -29.6738 -52.8721 -17.0312 -45.6904 12.5938
c6.60938 27.2744 15.4727 53.8799 27.042 79.4727c9.4668 20.9346 18.4268 45.9443 45.4746 40.8877z" />
    <glyph glyph-name="quotedbl" unicode="&#x201d;" horiz-adv-x="273" 
d="M106.394 517.319c17.8887 23.6191 58.2734 1.52637 40.6924 -23.791c-20.7676 -29.9053 -37.3672 -61.2285 -48.5645 -95.9375c-9.65039 -29.9219 -57.1309 -16.8643 -47.1514 12.998c12.7988 38.2939 30.6064 74.4912 55.0234 106.73zM208.708 515.87
c15.4512 -2.88477 18.0977 -23.0371 8.75488 -33.1562c-10.1787 -11.0195 -14.9873 -33.1777 -20.1465 -47.4541c-6.19434 -17.1338 -11.1436 -34.6445 -15.4346 -52.3438c-7.18652 -29.6738 -52.8721 -17.0312 -45.6904 12.5938
c6.60938 27.2744 15.4727 53.8799 27.042 79.4727c9.4668 20.9346 18.4268 45.9443 45.4746 40.8877z" />
    <glyph glyph-name="quotedbl" unicode="&#x201c;" horiz-adv-x="273" 
d="M106.394 517.319c17.8887 23.6191 58.2734 1.52637 40.6924 -23.791c-20.7676 -29.9053 -37.3672 -61.2285 -48.5645 -95.9375c-9.65039 -29.9219 -57.1309 -16.8643 -47.1514 12.998c12.7988 38.2939 30.6064 74.4912 55.0234 106.73zM208.708 515.87
c15.4512 -2.88477 18.0977 -23.0371 8.75488 -33.1562c-10.1787 -11.0195 -14.9873 -33.1777 -20.1465 -47.4541c-6.19434 -17.1338 -11.1436 -34.6445 -15.4346 -52.3438c-7.18652 -29.6738 -52.8721 -17.0312 -45.6904 12.5938
c6.60938 27.2744 15.4727 53.8799 27.042 79.4727c9.4668 20.9346 18.4268 45.9443 45.4746 40.8877z" />
    <glyph glyph-name="numbersign" unicode="#" horiz-adv-x="721" 
d="M664.105 331.854c21.0693 -23.3066 -12.25 -57.1689 -34.6611 -34.666c-16.0068 16.0713 -50.4619 10.9121 -71.2402 10.1465c-12.168 -0.447266 -24.3203 -1.2832 -36.4502 -2.33496c-4.56641 -14.2812 -9.01465 -28.5947 -13.3496 -42.957
c30.5791 2.67969 42.8174 -44.4512 11.5752 -48.7969c-8.97656 -1.24512 -17.9424 -2.56055 -26.8975 -3.9082c-1.05664 -3.7959 -2.17773 -7.56445 -3.21777 -11.3711c-15.9473 -58.3389 -30.1426 -117.195 -42.5205 -176.396
c-11.7471 -56.1768 -26.4971 -114.704 -25.9307 -172.353c0.296875 -30.2178 -45.6475 -29.9531 -46.7529 0.000976562c-2.23242 60.377 11.833 121.789 23.2246 180.774c11.0254 57.1045 23.9375 113.81 38.666 170.072
c-44.7744 -7.90918 -89.2627 -17.1494 -133.401 -27.8672c-21.2686 -87.6729 -37.1348 -176.494 -47.0605 -265.423c-3.5957 -32.2451 -54.6729 -32.1211 -50.667 0c10.6045 85.0957 25.2578 168.919 43.9385 251.578
c-38.4072 -10.4375 -76.5342 -21.9961 -114.338 -34.7842c-26.8857 -9.09473 -38.083 33.0596 -11.6553 42.2783c45.5615 15.8984 91.5918 30.3789 138.037 43.3291c4.37793 17.6455 8.92285 35.2422 13.6885 52.7744c-67.3418 -17.543 -133.438 -39.582 -197.988 -65.7461
c-27.1611 -11.0146 -38.5957 32.7734 -12.0596 43.7393c73.041 30.1855 148.142 55.0283 224.762 74.0859c31.0264 104.968 69.1367 207.995 114.795 309.156c14.416 31.9434 62.1074 4.21582 47.2441 -27.6143c-40.4668 -86.6641 -75.6338 -176.639 -105.064 -268.581
c8.68555 1.81152 17.3604 3.66602 26.083 5.32617c35.4209 6.75 71.1592 12.4268 107.021 16.7773c22.6055 70.3994 48.0684 139.888 76.9766 207.903c11.6992 27.5273 59.1475 7.22949 48.2676 -20.3467c-23.7158 -60.1123 -46.2188 -120.586 -66.9316 -181.669
c40.7363 3.54199 96.4658 9.44043 125.907 -23.1279zM450.794 252.641c4.3291 15.3701 8.79785 30.708 13.3916 46.0029c-39.4316 -5.05664 -78.6582 -11.6826 -117.562 -19.8447c-5.25684 -1.10547 -10.4756 -2.3291 -15.7158 -3.48828
c-5.04102 -17.1387 -9.90918 -34.3311 -14.5352 -51.5889c44.4619 11.1387 89.2852 20.8105 134.421 28.9189z" />
    <glyph glyph-name="dollar" unicode="$" horiz-adv-x="447" 
d="M312.805 214.238c61.5791 -36.0029 115.012 -108.022 62.458 -175.656c-28.0889 -36.1533 -73.7686 -57.2812 -120.387 -62.3057c0.506836 -12.5938 1.00781 -25.1875 1.50879 -37.7871c1.27734 -32.0078 -47.3037 -31.4414 -49.4062 0
c-0.862305 12.9062 -1.53125 25.8398 -2.29688 38.7568c-7.19238 1.09961 -14.2822 2.51758 -21.1455 4.46875c-62.7217 17.8125 -125.185 84.5996 -84.8525 150.891c13.5371 22.25 43.9541 2.79883 34.04 -19.8984c-19.4297 -44.4727 29.1025 -76.373 69.1699 -86.1416
c-3.03516 60.5059 -5.05664 121.114 -6.39355 181.766c-26.584 11.3809 -53.0439 23.0205 -78.0107 37.7227c-36.7578 21.6455 -71.9678 53.3027 -67.0244 99.959c4.59863 43.3779 42.3809 75.9141 78.0283 96.2178c19.8828 11.3213 41.9814 20.125 64.9756 25.8721
c0.140625 32.6816 0.345703 65.3525 0.668945 97.9854c0.296875 29.873 46.5381 29.8516 46.376 0c-0.162109 -30.2715 -0.0761719 -60.5166 0.139648 -90.7559c48.1172 2.7334 96.3691 -8.92285 133.812 -40.0254c25.7158 -21.3545 -11.0254 -57.2607 -36.542 -36.542
c-25.8779 21.0098 -62.5928 26.6758 -96.7246 23.9043c0.78125 -58.2744 2.09668 -116.511 3.82227 -174.736c23.0693 -10.2861 45.9658 -20.9336 67.7842 -33.6943zM106.449 342.218c-4.20508 -34.8438 60.748 -59.4229 87.8877 -71.5859
c-0.673828 47.4541 -1.00781 94.9189 -1.00781 142.352c-34.5146 -11.2949 -82.6533 -35.6846 -86.8799 -70.7656zM339.782 78.0088c24.6055 51.0283 -48.9639 86.6484 -84.417 103.776c-2.77148 1.34277 -5.5752 2.60449 -8.3623 3.90332
c1.79492 -53.4326 3.81152 -106.871 5.91992 -160.331c34.8604 5.52637 72.3623 22.5898 86.8594 52.6514z" />
    <glyph glyph-name="percent" unicode="%" horiz-adv-x="620" 
d="M114.783 190.156c-31.5117 2.28613 -46.1895 30.5156 -44.6641 59.2461c3.21289 60.3877 47.2539 123.088 92.6104 159.996c21.3008 17.333 53.8799 42.8174 82.6533 41.793c19.7266 -0.706055 31.7656 -15.5693 30.6924 -31.4893
c6.12402 -2.8252 11.3369 -8.09277 14.1025 -16.1963c11.6611 -34.1963 -8.58887 -68.5439 -26.7412 -96.6436c-18.708 -28.9619 -41.4482 -55.7568 -67.6016 -78.2549c-22.0234 -18.9453 -50.1387 -40.6885 -81.0518 -38.4512zM124.307 252.113
c-0.566406 -2.41504 -0.748047 -4.8457 -0.748047 -7.29297c7.00879 1.56348 14.1572 6.95508 19.7861 10.8096c15.6943 10.7451 29.792 24.9023 42.5742 38.8652c17.958 19.624 60.5059 65.876 52.2354 94.665c-0.868164 3.02441 -1.23438 5.87109 -1.20703 8.54492
c-1.1377 -0.620117 -2.43164 -1.18652 -4.07617 -1.6123c-3.4502 -1.94043 -6.84668 -3.96777 -10.1836 -6.09766c-8.25391 -5.16504 -16.0928 -10.7285 -23.5488 -16.999c-12.0332 -10.1143 -23.3066 -21.7002 -33.0977 -34.0029
c-19.1934 -24.1094 -37.1035 -55.9395 -41.7344 -86.8799zM535.505 507.887c15.9316 13.0957 45.667 -4.84668 31.0518 -23.9639c-37.4531 -49.001 -82.8857 -92.5732 -124.809 -137.747c-40.9844 -44.165 -81.3379 -88.9121 -120.618 -134.604
c-81.1543 -94.4062 -156.497 -193.471 -221.618 -299.679c-17.71 -28.8916 -63.1855 -2.45312 -45.4971 26.5947c64.4961 105.922 140.583 204.199 221.743 297.818c41.5723 47.9502 84.6865 94.5576 128.366 140.588c42.1816 44.4512 83.9805 92.04 131.381 130.992z
M355.639 157.212c50.5859 35.3994 129.103 44.8623 176.621 -1.6377c50.915 -49.8203 18.6104 -124.635 -27.7002 -164.697c-39.5176 -34.1855 -116.79 -70.6846 -161.92 -25.085c-39.5283 39.9434 -14.9932 102.913 12.1035 149.617
c-13.6826 8.80371 -14.2109 31.2363 0.895508 41.8027zM466.416 28.0273c27.582 22.1582 62.8408 71.7744 21.1934 98.2891c-19.6514 12.5127 -42.5322 13.2617 -64.291 7.80078c0.0537109 -4.28613 -1.08887 -8.90137 -3.81641 -13.6514
c-10.9336 -19.0312 -22.9668 -38.0566 -31.21 -58.4785c-5.11133 -12.6533 -16.4492 -41.4316 -8.125 -54.252c16.5615 -25.5166 70.4902 7.63379 86.249 20.292z" />
    <glyph glyph-name="ampersand" unicode="&#x26;" horiz-adv-x="590" 
d="M502.193 220.363c8.125 23.8184 42.4248 14.2031 37.5293 -10.3438c-12.9609 -64.9541 -76.7344 -113.028 -127.816 -149.226c-9.56445 -6.77637 -19.4307 -13.3428 -29.5283 -19.6719c4.49609 -4.31348 9.04102 -8.55078 13.6777 -12.6699
c25.7861 -22.8965 -12.1416 -60.5381 -37.793 -37.792c-8.37793 7.42871 -16.4814 15.1543 -24.3477 23.1064c-35.2373 -17.667 -72.4424 -31.582 -110.176 -39.5342c-52.5107 -11.0625 -132.91 -11.332 -164.109 42.2197c-31.0479 53.2979 19.6514 113.26 57.5361 146.745
c29.7705 26.3145 62.0479 49.6211 95.0049 72.1084c-7.90332 40.9141 -8.92773 83.4131 -1.49316 126.521c19.085 110.666 118.079 245.528 244.623 181.222c57.7246 -29.334 64.1182 -93.835 33.6523 -146.319c-31.0918 -53.5732 -86.8701 -93.9053 -136.044 -129.714
c-26.2607 -19.123 -53.2979 -37.168 -80.2324 -55.3584c15.1064 -48.4131 41.5078 -93.5869 74.6641 -133.148c3.21289 1.82227 6.39941 3.65527 9.53125 5.48242c29.1934 17.0742 56.8018 36.7148 82.2705 58.9697c24.6484 21.5439 52.1924 45.5674 63.0508 77.4023z
M264.154 356.021c-5.99512 -29.8564 -6.83594 -59.3789 -3.49316 -88.1465c56.29 37.6523 111.977 75.9893 158.163 125.664c19.4355 20.9072 50.4512 61.0342 27.6895 89.6348c-16.6855 20.9668 -52.6025 23.6406 -76.6963 18.8643
c-62.167 -12.3135 -94.5791 -90.7617 -105.663 -146.017zM163.284 21.8604c45.335 -2.5498 92.2598 11.7793 135.368 31.5488c-30.7031 38.4775 -55.3252 81.3115 -71.499 126.948c-14.9551 -10.5664 -29.7324 -21.3809 -44.1436 -32.6973
c-24.9072 -19.5596 -51.7773 -40.666 -68.1289 -68.291c-8.29688 -14.0176 -15.6133 -28.9678 -2.99219 -42.0957c11.4941 -11.958 36.084 -14.5508 51.3955 -15.4131z" />
    <glyph glyph-name="quotesingle" unicode="'" horiz-adv-x="175" 
d="M79.6484 526.155c10.2002 27.8672 52.2627 17.1211 44.9629 -12.3965c-9.34863 -37.7764 -19.5381 -75.0566 -26.6973 -113.361c-5.81152 -31.0645 -53.3516 -17.8828 -47.3994 13.0635c7.2998 37.9492 15.8232 76.3408 29.1338 112.694z" />
    <glyph glyph-name="quotesingle" unicode="&#x2019;" horiz-adv-x="175" 
d="M79.6484 526.155c10.2002 27.8672 52.2627 17.1211 44.9629 -12.3965c-9.34863 -37.7764 -19.5381 -75.0566 -26.6973 -113.361c-5.81152 -31.0645 -53.3516 -17.8828 -47.3994 13.0635c7.2998 37.9492 15.8232 76.3408 29.1338 112.694z" />
    <glyph glyph-name="quotesingle" unicode="&#x2018;" horiz-adv-x="175" 
d="M79.6484 526.155c10.2002 27.8672 52.2627 17.1211 44.9629 -12.3965c-9.34863 -37.7764 -19.5381 -75.0566 -26.6973 -113.361c-5.81152 -31.0645 -53.3516 -17.8828 -47.3994 13.0635c7.2998 37.9492 15.8232 76.3408 29.1338 112.694z" />
    <glyph glyph-name="parenleft" unicode="(" horiz-adv-x="427" 
d="M345.893 -113.302c31.5547 7.95215 43.4922 -37.8271 13.3008 -48.2539c-79.4668 -27.4414 -171.188 -4.7334 -229.684 55.3848c-117.065 120.312 -85.165 316.947 -29.3496 458.258c29.4902 74.6582 69.5693 147.974 124.097 207.455
c19.2793 21.0312 135.062 117.298 140.437 39.168c1.1748 -17.0742 -18.25 -23.3223 -30.4453 -16.0059c-11.624 -2.2373 -34.0625 -22.2285 -40.2676 -27.4531c-12.9014 -10.8584 -24.6924 -22.9668 -35.6309 -35.7871
c-25.7383 -30.1748 -47.0449 -64.4199 -66.168 -99.0752c-39.124 -70.917 -65.9453 -148.125 -79.0996 -228.066c-13.0957 -79.5801 -9.92578 -166.255 36.7842 -234.988c43.7988 -64.4473 121.8 -89.3438 196.026 -70.6357z" />
    <glyph glyph-name="parenright" unicode=")" horiz-adv-x="397" 
d="M269.845 494.74c49.459 -79.3701 76.25 -171.969 77.0264 -265.442c1.34277 -160.428 -68.4199 -362.924 -226.152 -432.385c-31.7656 -13.9902 -59.9297 31.7705 -27.7441 47.459c132.398 64.5332 194.468 225.354 199.729 365.106
c3.0625 81.2568 -13.9688 162.837 -51.9287 234.95c-35.167 66.8086 -88.4492 130.382 -168.029 139.121c-29.6357 3.25098 -31.0107 48.7744 0 47.3838c86.8477 -3.89746 153.295 -65.8965 197.099 -136.193z" />
    <glyph glyph-name="asterisk" unicode="*" horiz-adv-x="435" 
d="M361.91 472.862c30.7139 0.609375 30.6104 -47.0312 -0.00683594 -47.6348c-31.415 -0.620117 -62.7061 -2.78711 -93.873 -6.25391c23.9375 -22.627 47.832 -45.2969 71.4023 -68.2852c22.2822 -21.7266 -11.4082 -55.1035 -34.041 -34.04
c-24.6221 22.918 -48.877 46.251 -73.1426 69.5625c0.162109 -34.7246 1.40234 -69.4229 3.33203 -104.115c1.80078 -32.3906 -48.5 -32.1855 -50.29 0c-1.82227 32.8115 -2.59863 65.666 -2.51758 98.5254c-22.2227 -23.5811 -43.6045 -47.9385 -63.5957 -73.4336
c-13.6348 -17.3867 -43.8311 6.17871 -30.5635 23.582c17.5703 23.042 35.5391 45.6533 54.0684 67.709c-24.4004 -4.73926 -48.834 -9.23047 -73.418 -12.002c-23.5811 -2.6582 -25.748 32.6221 -5.21777 39.2207
c-0.0429688 0.107422 -0.0917969 0.214844 -0.134766 0.322266c32.251 10.2275 65.9521 18.6865 100.257 25.5225c-2.64746 2.5498 -5.30566 5.08887 -7.95312 7.63379c-14.8477 14.2812 -30.2285 34.3369 -46.6826 46.5
c-1.6709 0.900391 -3.20215 1.97363 -4.39941 3.25098c-0.177734 0.188477 -0.350586 0.37207 -0.52832 0.560547c-11.4883 12.2598 -4.56055 39.4854 15.2852 36.9033c21.4893 -2.79785 35.5605 -21.1123 50.7266 -35.415
c4.72266 -4.45312 9.44043 -8.91211 14.1631 -13.3652c1.10547 24.5303 3.8877 48.8662 11.5488 70.0645c10.1299 28.0234 50.376 17.0195 44.5967 -12.293c-3.74707 -18.9932 -5.64453 -38.7412 -6.71777 -58.6348c21.8613 20.8965 44.666 40.9141 68.7109 59.8105
c23.7969 18.7021 57.8584 -14.0771 33.8623 -33.8633c-21.748 -17.9316 -43.2266 -36.3154 -64.3281 -55.1582c30.1533 2.96484 60.1445 4.74902 89.457 5.32617z" />
    <glyph glyph-name="plus" unicode="+" horiz-adv-x="320" 
d="M246.628 278.232c31.248 0.68457 31.0859 -49.6074 0.00488281 -48.3945c-23.1611 0.905273 -46.166 -0.388672 -68.9551 -3.31641c-0.0703125 -1.15918 -0.177734 -2.31836 -0.248047 -3.48242c-3.01953 -52.1924 -10.627 -113.955 6.49609 -164.186
c10.2705 -30.1211 -36.6172 -42.332 -47.2754 -13.0303c-18.7666 51.5781 -14.8525 112.537 -13.0898 166.558c0.0429688 1.36914 0.118164 2.73828 0.166992 4.10742c-15.2627 -3.69336 -30.4062 -7.96875 -45.3779 -12.8428
c-28.708 -9.34277 -40.2988 35.0107 -12.3613 44.8389c19.9258 7.00879 40.0303 12.4326 60.3018 16.7236c2.92188 42.7363 7.50488 85.3701 13.085 127.826c4.50195 34.2344 58.749 34.9785 54.5869 0c-4.71777 -39.6367 -9.2627 -79.2734 -12.7295 -119.023
c21.5811 2.39355 43.3672 3.73633 65.3955 4.22168z" />
    <glyph glyph-name="comma" unicode="," horiz-adv-x="230" 
d="M133.009 66.3672c16.1357 28.6064 59.6914 3.04297 43.9707 -25.6982c-23.7969 -43.502 -51.2705 -86.0664 -84.4053 -123.115c-18.46 -20.6436 -54.7266 7.14844 -38.499 29.7051c27.9541 38.8438 55.374 77.3428 78.9336 119.108z" />
    <glyph glyph-name="hyphen" unicode="-" horiz-adv-x="311" 
d="M235.624 243.837c33.3506 1.50391 33.0488 -49.9111 0.00585938 -51.6797c-25.835 -1.375 -51.6592 -3.11133 -77.4404 -5.27832c-20.7295 -1.74121 -53.7021 0.900391 -72.248 -8.94434c-29.043 -15.4141 -49.5732 23.8232 -25 42.7686
c19.7051 15.1982 52.9902 13.3975 76.6367 15.8828c32.6221 3.42871 65.2773 5.77344 98.0459 7.25098z" />
    <glyph glyph-name="period" unicode="." horiz-adv-x="162" 
d="M110.946 -24.3682c6.63086 -30.7197 -40.7793 -43.626 -47.0273 -12.9658c-5.0625 24.8057 -14.8643 53.1152 -13.8457 78.5078c0.825195 20.5518 31.2373 32.1807 41.4434 11.2246c11.2568 -23.1123 14.0225 -51.7188 19.4297 -76.7666z" />
    <glyph glyph-name="slash" unicode="/" horiz-adv-x="470" 
d="M369.389 560.104c18.1523 29.7764 64.2734 2.94336 46.8008 -27.3613c-63.6758 -110.483 -124.694 -222.056 -178.785 -337.606c-27.4844 -58.7109 -53.7178 -117.944 -78.4258 -177.879c-24.2656 -58.8564 -50.791 -118.23 -68.5605 -179.438
c-7.62305 -26.2715 -44.2725 -14.7988 -40.083 11.0527c10.6152 65.5361 38.8975 129.8 63.293 191.255c23.085 58.1611 47.4854 115.88 73.5469 172.773c54.376 118.694 114.246 235.674 182.214 347.203z" />
    <glyph glyph-name="zero" unicode="0" horiz-adv-x="378" 
d="M218.516 475.874c81.6348 -27.2959 113.864 -123.54 123.487 -200.829c10.4316 -83.7637 -5.64551 -184.893 -59.0674 -252.758c-24.0664 -30.5742 -60.9424 -52.4033 -100.913 -48.5059c-39.4209 3.84375 -68.8193 33.0156 -86.6484 66.582
c-43.7451 82.335 -46.4297 181.609 -41.6748 272.544c-12.3945 -1.62793 -25.0908 5.2998 -23.5762 21.4141c7.84473 83.3379 101.89 170.477 188.393 141.553zM282.284 154.491c18.2871 75.7314 13.7031 175.017 -33.4922 240.332
c-24.2334 33.5498 -63.0449 49.2168 -101.506 29.9219c-30.3955 -15.252 -63.584 -50.1816 -70.7217 -85.0039c15.5215 2.99707 33.1455 -5.62891 32.6387 -26.1484c-2.01074 -81.5801 -3.74707 -174.353 37.0918 -248.008
c20.2227 -36.4717 54.9209 -47.7559 86.7666 -15.9316c26.8975 26.8809 40.5107 68.749 49.2227 104.838z" />
    <glyph glyph-name="one" unicode="1" horiz-adv-x="294" 
d="M242.604 12.8506c33.1025 2.68457 33.0967 -49.4365 0 -51.6631c-41.3242 -2.80371 -79.1328 -14.1797 -119.313 -22.5742c-24.6758 -5.15918 -42.7256 30.3369 -17.9639 42.6074c15.1436 7.50488 31.2256 13.209 47.7656 17.6299
c-1.36426 105.604 16.5352 211.709 21.1504 317.178c1.18652 27.0908 2.81445 54.7373 1.55859 81.8447c-0.264648 5.69336 0.338867 15.4727 -1.76367 22.6318c-1.20801 -0.442383 -2.65332 -0.874023 -4.5459 -1.30566
c-5.4502 -3.06738 -10.6523 -6.50684 -15.6123 -10.3184c-37.7549 -29.1074 -67.6982 -71.3906 -92.4658 -111.534c-15.9902 -25.9209 -56.4844 -2.42578 -40.9141 23.916c29.0859 49.2109 65.666 101.409 112.894 134.813c18.2334 12.8955 41.3672 24.4648 63.4277 14.0869
c23.1289 -10.8848 29.3877 -40.4717 31.8242 -63.2334c7.22461 -67.4072 0.852539 -137.741 -3.78418 -205.143c-4.39941 -63.8975 -7.32715 -128.091 -12.4053 -191.945c10.1191 1.21875 20.2012 2.2002 30.1484 3.00879z" />
    <glyph glyph-name="two" unicode="2" horiz-adv-x="341" 
d="M274.768 76.376c34.6016 9.42969 48.8027 -43.1553 14.7412 -53.4854c-41.6416 -12.626 -83.6289 -22.7881 -126.651 -29.457c-28.0557 -4.35645 -62.2578 -8.6748 -75.2402 23.5869c-12.3193 30.6113 14.502 64.9541 28.4873 90.584
c18.5947 34.0674 37.9062 67.7412 56.4414 101.841c18.4756 33.9922 36.1807 68.4365 51.5615 103.949c10.4912 24.2285 46.5264 93.2041 15.5 113.502c-24.6221 16.1143 -73.1162 -2.6416 -96.6758 -13.4893c-15.4248 -7.10059 -30.3799 -16.1582 -43.6426 -26.7793
c-6.36719 -5.09473 -32.3965 -23.9639 -33.043 -32.8438c-1.69238 -23.3604 -35.1777 -29.6738 -41.8193 -5.66113c-9.25098 33.4473 28.5098 62.9541 52.3281 81.1553c27.7061 21.1719 59.7197 36.9902 93.7061 45.1416c32.5635 7.81152 71.2461 11.7471 100.148 -8.69629
c29.4043 -20.7939 33.626 -59.002 28.4609 -91.9805c-12.9121 -82.4111 -61.9883 -162.989 -101.08 -235.329c-10.001 -18.5078 -20.1367 -36.9404 -30.0625 -55.4863c-5.34277 -9.97949 -10.6426 -19.9746 -15.8506 -30.0293
c-0.177734 -0.339844 -0.344727 -0.679688 -0.522461 -1.01953c19.252 3.08398 47.249 6.69043 52.2471 7.70898c23.835 4.87891 47.4922 10.3945 70.9658 16.7881z" />
    <glyph glyph-name="three" unicode="3" horiz-adv-x="364" 
d="M298.17 231.574c48.6504 -43.5127 38.4385 -112.778 13.9189 -166.476c-23.5869 -51.6699 -71.5371 -109.68 -132.49 -113.782c-73.6982 -4.95996 -98.2285 65.2129 -97.8838 126.301c0.205078 36.6768 54.7861 36.1758 56.6084 0
c1.10547 -21.8828 -0.355469 -57.541 24.4717 -67.6982c19.3496 -7.91406 41.2002 6.25977 55.1045 18.3848c30.7783 26.8379 53.4648 68.1777 58.8291 108.779c6.10254 46.208 -26.9834 69.1367 -69.0029 74.9482c-25.5117 3.52539 -51.7725 0.910156 -77.4238 1.25
c-19.2793 0.258789 -35.8359 0.889648 -46.4355 19.0146c-4.5498 7.78516 -5.74707 20.2549 0 27.9102c19.8936 26.4873 53.8584 45.3408 79.6504 65.9619c27.3174 21.8457 54.6025 45.082 75.9736 72.9658c2.68457 3.50391 16.4326 18.4971 15.6025 22.2383
c-0.943359 4.24316 -25.6025 2.49609 -28.9131 2.31836c-20.0605 -1.08398 -40.3799 -6.26465 -59.6855 -11.6016c-34.7305 -9.59668 -75.5586 -21.7598 -102.283 -46.9961c-22.0557 -20.832 -52.4619 10.4375 -32.9668 32.9678
c32.8486 37.96 93.3867 55.9131 140.522 67.2617c37.7607 9.08984 103.453 23.2637 129.057 -17.3867c25.4463 -40.3965 -27.1943 -93.1387 -53.1533 -119.464c-18.4756 -18.7344 -38.8652 -35.4473 -59.4434 -51.7988
c-3.17578 -2.52344 -6.75586 -5.08984 -10.5459 -7.70508c17.1768 -0.205078 34.3799 -1.38574 51.2871 -4.54004c25.0371 -4.67383 50.1172 -15.7852 69.2021 -32.8535z" />
    <glyph glyph-name="four" unicode="4" horiz-adv-x="326" 
d="M262.827 213.988c32.0186 6.37793 44.1719 -42.5918 11.9326 -52.9756c-3.41797 -1.10547 -7.06738 -2.26953 -10.8193 -3.46094c1.55762 -51.5244 4.25293 -102.936 5.47168 -154.497c0.646484 -27.3555 -40.0576 -32.1426 -47.0342 -6.36719
c-12.4219 45.8848 -15.123 95.6621 -15.6787 144.761c-73.332 -17.1982 -160.244 -21.2412 -175.205 63.3418c-8.85254 50.0312 7.50977 104.683 23.2842 151.737c14.9287 44.543 30.3311 98.0293 64.1455 132.237c17.6992 17.8994 50.1973 -5.98926 35.4248 -27.333
c-21.9531 -31.7217 -34.3047 -67.6328 -46.2842 -104.056c-11.9414 -36.2998 -23.5703 -74.9277 -25.2471 -113.319c-0.803711 -18.3789 -1.1543 -41.0547 16.3184 -51.8428c13.5811 -8.38867 31.5127 -6.73926 46.7217 -5.35938
c20.5352 1.86035 40.7148 6.19531 60.7002 11.4082c-0.00585938 6.18359 -0.0166016 12.3408 -0.0595703 18.4326c-0.571289 78.6689 0.776367 157.349 2.89551 235.98c0.970703 35.9922 56.4463 36.0732 55.9775 0c-0.99707 -76.8682 -2.81934 -153.731 -2.625 -230.616
c0.0107422 -2.69043 0.0644531 -5.38086 0.0810547 -8.07129z" />
    <glyph glyph-name="five" unicode="5" horiz-adv-x="444" 
d="M341.116 292.948c74.9111 -27.4092 86.9346 -103.705 57.8105 -170.891c-24.8213 -57.293 -85.3164 -139.908 -155.096 -141.51c-90.5303 -2.0752 -78.001 103.707 -62.043 162.434c9.38574 34.5361 61.9346 19.9043 53.4922 -14.7451
c-4.94922 -20.3086 -29.5498 -98.2988 12.1895 -91.835c31.334 4.85742 62.7705 43.373 79.8174 67.5479c19.4463 27.5762 41.2705 66.334 33.5498 101.34c-8.17871 37.0811 -50.9902 45.6045 -83.4131 44.9307c-42.6553 -0.889648 -83.2842 -16.6699 -121.95 -33.3506
c-23.7754 -10.2539 -56.4414 -19.7744 -68.9326 11.6943c-6.45898 16.2705 0.295898 33.5547 4.7168 49.4424c5.52051 19.8457 11.2295 39.6475 17.2627 59.3525c8.10352 26.46 16.8477 52.7051 26.0508 78.793c-26.6816 -9.11133 -52.8994 -19.5488 -78.5508 -31.3828
c-30.4443 -14.0439 -57.0713 31.0752 -26.4648 45.2812c56.7051 26.3203 115.529 47.4375 176.548 61.2656c49.1523 11.1436 126.884 33.2959 172.586 3.02441c28.7627 -19.0527 2.50684 -65.0137 -27.2314 -46.5918c-20.3408 12.5996 -55.7988 5.60742 -78.3018 2.51855
c-24.2178 -3.32617 -48.2627 -8.52832 -71.9736 -14.4316c-2.98633 -0.744141 -5.95117 -1.55859 -8.92676 -2.33496c-11.0898 -31.3018 -21.5762 -62.8086 -31.2373 -94.585c-5.49414 -18.0664 -10.7666 -36.208 -15.7266 -54.4307
c-1.375 -5.05176 -3.94141 -11.6885 -6.13574 -18.46c2.68457 1.16406 5.34766 2.36133 8.04297 3.49902c8.08105 3.42871 16.1895 6.81445 24.3945 9.94141c19.71 7.50977 39.8623 13.9043 60.6074 17.8613c35.8682 6.84668 74.1357 8.3457 108.915 -4.37793z" />
    <glyph glyph-name="six" unicode="6" horiz-adv-x="327" 
d="M176.479 175.489c37.2109 11.7207 85.3486 16.9189 112.876 -17.0303c47.6592 -58.7812 -36.4932 -147.312 -83.2188 -177.535c-32.1045 -20.7725 -70.9326 -33.7227 -107.491 -16.7783c-35.5879 16.4863 -55.9727 52.3867 -62.6523 89.8887
c-14.9609 83.958 5.62305 177.75 36.0732 256.031c15.5381 39.9434 34.5908 78.5449 56.7432 115.232c18.9346 31.3506 40.0088 69.877 75.0039 85.2637c26.3037 11.5645 46.8496 -22.0928 22.7021 -38.8438c-28.8809 -20.0391 -46.1973 -58.6514 -62.4629 -88.7129
c-18.2227 -33.6846 -33.7979 -68.6309 -46.2197 -104.865c-15.4082 -44.9688 -30.207 -99.5498 -32.126 -151.727c27.3926 21.1553 57.2061 38.5039 90.7725 49.0762zM247.578 89.5049c10.4863 17.0684 19.9736 41.2803 -6.52441 48.3594
c-17.6836 4.7334 -39.6797 -2.73926 -56.3223 -8.68066c-34.6445 -12.3672 -65.5361 -33.9805 -91.7754 -59.4375c-0.943359 -0.916016 -1.91406 -1.69238 -2.89551 -2.40918c0.835938 -4.03809 1.75293 -8.04395 2.83691 -11.9746
c25.3555 -91.8027 125.147 -13.9209 154.681 34.1426z" />
    <glyph glyph-name="seven" unicode="7" horiz-adv-x="422" 
d="M374.938 220.587c32.1211 1.92969 31.9375 -48.0674 0.00488281 -49.917c-21.3223 -1.22949 -42.3535 -3.74219 -63.1367 -7.4082c-20.4385 -71.957 -44.748 -143.413 -56.0586 -215.839c-5.71484 -36.585 -60.5225 -20.7129 -55.3203 15.252
c9.14941 63.2881 27.9971 124.14 46.5918 185.071c-10.6641 -3.21875 -21.2793 -6.66895 -31.8242 -10.5078c-30.0674 -10.9492 -42.834 36.8818 -13.166 47.7617c20.3037 7.44531 40.8818 13.6777 61.6865 18.8105c8.59863 30.0615 16.4268 60.3223 22.2598 91.0898
c8.71191 45.9824 26.0342 130.83 -38.9785 142.151c-55.3037 9.63379 -114.894 -7.4834 -162.429 -35.2002c-25.8623 -15.0791 -49.0928 24.8916 -23.4033 40.041c56.1719 33.124 123.74 50.9258 189.034 42.2783c63.2236 -8.37305 94.3154 -60.1133 95.0059 -120.824
c0.566406 -49.9229 -7.66113 -98.999 -19.4893 -147.692c16.2871 2.25879 32.6875 3.94043 49.2227 4.93262z" />
    <glyph glyph-name="eight" unicode="8" horiz-adv-x="417" 
d="M163.615 505.521c70.7549 38.9463 201.781 66.2686 220.047 -44.7969c8.07031 -49.0762 -10.5781 -103.323 -24.6328 -149.753c-14.4111 -47.6152 -30.7471 -94.5781 -43.7021 -142.608c3.66113 -4.66895 7.16016 -9.47266 10.3896 -14.4756
c27.2422 -42.2139 30.04 -91.4307 -0.862305 -132.366c-26.3037 -34.8379 -70.2852 -61.9561 -115.178 -56.1123c-113.944 14.8369 -82.0068 172.709 -39.2324 238.487c-8.79297 3.64941 -17.6396 7.1748 -26.4385 10.7227
c-38.0947 15.3438 -86.2598 33.4102 -107.755 71.2246c-49.0547 86.3037 60.6201 182.937 127.364 219.678zM289.143 62.2451c14.2275 28.0889 -1.01953 56.9473 -20.0293 78.6416c-16.0117 18.2764 -35.2266 31.8301 -55.918 43.0488
c-0.442383 -1.34766 -0.916992 -2.70117 -1.6123 -4.07617c-17.6777 -34.9834 -64.8457 -161.57 10.1416 -163.651c26.3096 -0.727539 56.0312 23.5605 67.418 46.0371zM314.81 348.887c12.8525 45.1572 44.9072 141.233 -32.3818 139.826
c-50.3809 -0.916992 -102.299 -29.4639 -139.553 -61.8164c-29.835 -25.9102 -93.5869 -88.3838 -49.2598 -126.607c36.4883 -31.4629 89.8242 -41.6094 132.421 -62.4141c15.8398 -7.73633 31.1621 -16.9287 45.4385 -27.4844
c13.6074 46.4082 30.0889 91.9482 43.335 138.496z" />
    <glyph glyph-name="nine" unicode="9" horiz-adv-x="454" 
d="M334.404 437.547c77.0469 27.4092 84.9453 -154.724 84.6973 -198.862c-0.500977 -89.5762 -10.8086 -209.86 -91.0146 -266.895c-35.7227 -25.4033 -85.042 -25.333 -115.514 8.42188c-31.6523 35.0645 -41.3408 89.1006 -37.9609 134.7
c2.50195 33.792 54.2148 34.5254 53.1963 0c-1.22363 -41.5127 23.4248 -141.796 78.2969 -82.7617c36.4668 39.2324 48.8994 100.202 54.0215 151.705c5.20215 52.29 8.78223 108.262 -0.932617 160.185c-1.50977 8.07617 -4.09766 33.7383 -10.8965 39.0322
c-7.03516 5.47754 -16.3135 -6.41016 -22.6641 -12.2861c-18.1953 -16.8369 -35.5498 -34.5684 -52.7803 -52.3867c-35.4473 -36.666 -70.2744 -74.3506 -110.014 -106.493c-29.3555 -23.7373 -80.6914 -66.1338 -117.918 -33.6621
c-33.2588 29.0156 -15.5703 82.5938 -0.59375 115.885c18.7725 41.7393 46.3809 80.9502 80.9385 111.136c35.0596 30.6221 77.5801 54.1064 124.387 59.2715c31.5605 3.48242 67.542 -2.35645 84.751 -26.9893zM204.184 321.279
c29.625 29.6953 58.2852 62.5068 90.6162 89.8516c-22.4385 10.3193 -63.8379 -4.99219 -80.4102 -12.9014c-22.9834 -10.9717 -43.4219 -26.3477 -61.1914 -44.5059c-18.9346 -19.3438 -34.5908 -41.3242 -47.5303 -65.0615
c-6.64746 -12.2061 -12.8311 -24.7568 -16.9229 -38.0732c-2.63086 -8.55078 -4.03223 -16.3252 -4.91602 -25.1611c-0.107422 -1.04004 -0.00488281 -1.88672 0.113281 -2.57129c9.49902 2.81934 27.5381 17.1494 31.9971 20.293
c11.915 8.39453 23.1719 17.6621 34.1973 27.1826c18.751 16.1846 36.5635 33.415 54.0469 50.9473z" />
    <glyph glyph-name="colon" unicode=":" horiz-adv-x="162" 
d="M75.9873 270.227c-13.165 0 -21.0801 10.4297 -22.4922 22.4951c-1.7041 14.5459 -2.38867 29.124 -2.88965 43.7559c-0.46875 13.748 -2.81934 27.7598 6.5293 39.0117c6.78223 8.15723 22.3848 7.9043 29.2314 0.000976562
c0.172852 -0.199219 0.350586 -0.398438 0.523438 -0.603516c1.11035 -1.2832 1.98926 -2.60938 2.75488 -3.95215l-0.0498047 0.37207c6.22168 -10.1143 5.30469 -25.8564 6.36133 -37.4043c1.25586 -13.7266 2.35547 -27.3984 2.52246 -41.1836
c0.151367 -12.2002 -10.415 -22.4922 -22.4912 -22.4922zM108.711 103.365c3.39062 -17.5811 2.51855 -36.1436 2.82031 -53.9941c0.549805 -32.7412 -50.3926 -32.666 -50.7969 0c-0.220703 17.9209 -1.4502 36.2461 1.43457 53.9941
c3.80078 23.3926 42.1592 22.6758 46.542 0z" />
    <glyph glyph-name="semicolon" unicode=";" horiz-adv-x="222" 
d="M105.343 358.023c0.0859375 2.7334 0.0498047 5.46484 -0.0253906 8.19238c-0.15625 5.88184 -0.701172 11.7588 -1.34277 17.6025c-1.24512 11.3652 9.54785 20.7568 19.667 22.2773c11.2949 1.7041 21.5381 -5.53613 24.8857 -16.2432
c4.45312 -14.2383 5.27246 -29.3604 3.36914 -44.0947c-1.82715 -14.2002 -11.5264 -25.4678 -26.9834 -23.3926c-15.6504 2.10254 -21.71 15.6348 -19.8018 29.7275c-0.3125 -2.28027 0.199219 4.90137 0.231445 5.93066zM123.514 148.749
c9.66699 30.1152 57.1572 17.2051 47.5234 -13.0996c-21.1719 -66.5713 -45.2383 -132.054 -73.6553 -195.881c-13.5693 -30.4717 -58.4404 -4.05957 -44.8438 26.2119c26.832 59.7295 50.9688 120.408 70.9756 182.769z" />
    <glyph glyph-name="less" unicode="&#x3c;" horiz-adv-x="321" 
d="M244.677 321.266c22.374 5.30469 37.9922 -27.3311 16.1309 -38.248c-46.748 -23.3604 -100.779 -36.876 -142.842 -68.9326c-0.727539 -0.555664 -1.40723 -1.14355 -2.06543 -1.74219c11.9795 -1.95703 23.9971 -3.71973 35.9922 -5.59082
c29.458 -4.59375 58.8994 -9.19238 88.2871 -14.2275c33.8574 -5.80078 18.8857 -55.5947 -14.0391 -50.9316c-44.7148 6.3291 -91.2842 10.6475 -135.304 20.7725c-28.0234 6.44238 -50.1006 28.6924 -36.9248 58.7646c12.8691 29.3662 51.7783 48.1543 79.1172 60.6562
c35.6035 16.2812 73.0732 32.1689 111.647 39.4795z" />
    <glyph glyph-name="equal" unicode="=" horiz-adv-x="384" 
d="M310.896 304.461c30.8271 -3.36426 31.3125 -51.8779 0 -48.7676c-40.3701 4.00586 -80.9658 5.7793 -121.519 3.92969c-40.3857 -1.84375 -80.2646 -10.2324 -120.494 -11.877c-23.9746 -0.981445 -24.4434 31.1777 -5.23926 38.7197
c37.1455 14.5938 81.0732 18.1895 120.672 20.8047c42.2939 2.78711 84.4531 1.78418 126.58 -2.80957zM302.174 186.566c32.2393 1.28809 32.1104 -48.8613 0 -50.0361c-71.4883 -2.62012 -142.562 -8.78809 -213.575 -17.2959
c-26.3467 -3.1543 -32.126 42.1055 -6.24805 46.165c72.7871 11.4297 146.211 18.2285 219.823 21.167z" />
    <glyph glyph-name="greater" unicode="&#x3e;" horiz-adv-x="317" 
d="M265.976 221.037c6.05469 -32.6924 -34.7207 -39.5947 -57.2666 -46.3555c-40.7471 -12.2324 -81.6289 -24.1416 -122.635 -35.4736c-33.9219 -9.37012 -47.9717 42.5264 -14.4756 52.5166c27.1885 8.1084 54.501 15.7637 81.8076 23.4678
c7.90332 2.23242 16.4971 4.09277 25.2305 5.99023c-12.0391 5.2998 -24.1045 10.5352 -36.2344 15.6084c-27.0205 11.3057 -54.2305 22.1748 -81.0518 33.9658c-23.748 10.4375 -6.46387 48.1816 17.333 41.1084c39.1406 -11.6348 77.1113 -26.8652 114.731 -42.6729
c23.0586 -9.69336 67.1426 -18.8857 72.5605 -48.1553z" />
    <glyph glyph-name="question" unicode="?" horiz-adv-x="420" 
d="M348.959 464.221c27.3662 -27.2041 23.9746 -67.0303 14.6045 -101.162c-11.0684 -40.3262 -28.1963 -79.041 -45.6748 -116.92c-34.9141 -75.666 -71.4453 -148.68 -87.7646 -231.091c-6.86328 -34.666 -56.2471 -18.9072 -51.7832 14.2764
c16.1953 120.36 93.2207 221.247 131.714 334.308c10.2002 29.959 21.209 65.6602 -17.5811 77.2295c-27.1016 8.08105 -58.5703 4.87891 -85.2246 -3.28906c-28.9404 -8.86816 -55.0938 -25.667 -75.4453 -48.0566c-14.6377 -16.0986 -45.5459 -54.792 -34.1436 -78.3623
c12.373 -25.5811 -24.6973 -47.9873 -38.5146 -22.5137c-34.1533 62.959 34.7256 141.887 85.0801 173.183c54.8672 34.0996 153.403 53.416 204.733 2.39844zM183.975 -42.6289c10.3027 22.0068 48.7637 11.6494 46.5098 -12.5947
c-1.87109 -20.0605 -8.4375 -39.5283 -14.0225 -58.8018c-9.31641 -32.1318 -58.3066 -18.6162 -50.0791 13.8066c4.91699 19.3711 9.0791 39.4102 17.5918 57.5898z" />
    <glyph glyph-name="at" unicode="@" horiz-adv-x="747" 
d="M608.771 516.036c58.6465 -37.5449 93.6719 -98.9473 87.8867 -169.46c-5.72559 -69.7734 -45.3086 -133.175 -92.04 -183.438c-39.0107 -41.9551 -105.938 -91.8242 -166.907 -69.9248c-33.458 12.0176 -45.4531 40.4834 -45.9277 72.3135
c-30.6436 -27.8135 -63.2822 -53.3682 -99.501 -72.0273c-24.04 -12.3887 -54.1875 -21.4404 -78.502 -4.7002c-24.1475 16.6211 -27.1992 46.2842 -18.999 72.6094c17.624 56.5977 65.4287 106.833 117.562 133.32c44.5645 22.6377 125.671 43.2812 145.564 -19.543
c10.5342 -7.40723 16.4541 -21.6182 8.63184 -35.4355c-11.2412 -19.8613 -33.1621 -68.7119 -16.2227 -90.5361c15.8447 -20.417 57.3955 4.41504 72.9707 14.5996c47.5127 31.0703 89.0576 85.6348 108.649 138.728c18.7188 50.7207 15.2793 107.167 -24.8369 146.502
c-37.4805 36.752 -92.7412 54.29 -144.071 58.3926c-110.957 8.87402 -217.272 -43.7666 -284.556 -131.089c-66.4258 -86.2012 -96.1689 -209.047 -59.2715 -313.664c19.252 -54.5869 60.4307 -91.8779 117.648 -102.645c58.7266 -11.0518 118.154 6.04395 173.614 24.1582
c33.0215 10.7822 47.2217 -41.4316 14.3076 -51.9072c-80.6797 -25.6787 -169.36 -45.0225 -250.052 -8.58789c-71.2295 32.1641 -109.194 104.008 -120.462 178.559c-21.6787 143.435 40.8818 291.808 154.858 380.359c110.456 85.8184 277.563 111.567 399.654 33.416z
M328.396 183.324c30.7246 24.7246 58.8945 52.4131 86.7617 80.2754c-27.3174 15.7051 -79.5049 -15.4189 -99.3984 -29.3984c-28.832 -20.2607 -58.3008 -52.7109 -68.3984 -87.29c-2.53418 -8.67969 -5.0791 -11.3857 -0.270508 -12.459
c7.69336 -1.71484 19.7373 7.25098 25.7969 10.6855c19.5059 11.0576 38.0625 24.1475 55.5088 38.1865z" />
    <glyph glyph-name="A" unicode="A" horiz-adv-x="917" 
d="M884.261 -345c-0.943359 -34.9727 -53.7646 -35 -54.3252 0.00585938c-2.5127 153.527 0.56543 307.211 1.80566 460.749c0.151367 18.5029 0.291992 37.0547 0.362305 55.6279c-130.204 -2.91699 -260.015 -4.91699 -389.701 -17.4189
c-12.9336 -61.207 -21.1934 -123.293 -24.6602 -185.762c-1.86523 -33.6201 -2.37695 -67.3047 -1.51465 -100.962c0.787109 -30.7568 -0.916992 -64.9697 13.8389 -92.8691c13.6504 -25.8076 -23.9102 -47.874 -39.167 -22.8965
c-20.4277 33.4424 -21.3281 72.6104 -22.6602 110.721c-1.41211 40.375 -0.87793 80.8096 1.62402 121.131c3.43457 55.4219 10.5781 110.683 21.1934 165.236c-59.3525 -6.98145 -118.451 -16.082 -177.06 -27.8291c-66.2314 -13.2734 -130.441 -32.8271 -195.972 -48.6719
c-26.3418 -6.36719 -34.9033 29.9971 -10.918 39.5986c65.0459 26.0449 136.151 41.2217 204.68 54.9697c62.6895 12.5781 125.95 22.1748 189.443 29.6738c2.16211 9.22461 4.40527 18.4219 6.77734 27.5869c31.7441 122.748 79.958 246.854 163.501 344.043
c36.2998 42.2295 89.8027 97.166 148.88 101.021c62.5928 4.08691 104.326 -48.6289 122.985 -102.25c23.8672 -68.5986 31.6357 -145.133 37.4639 -217.149c6.15137 -76.0488 6.57715 -152.356 6.49121 -228.61c-0.177734 -155.263 1.11035 -310.73 -3.06836 -465.944z
M453.378 201.975c125.59 12.7822 252.581 18.6641 378.655 17.6826c-0.716797 99.8027 -5.82227 199.864 -28.0615 297.192c-12.3135 53.9014 -44.8818 128.517 -112.062 90.5459c-47.2812 -26.7188 -86.8428 -72.7812 -117.18 -117.011
c-59.0879 -86.1465 -96.2393 -186.984 -121.352 -288.41z" />
    <glyph glyph-name="A" unicode="&#xc5;" horiz-adv-x="917" 
d="M884.261 -345c-0.943359 -34.9727 -53.7646 -35 -54.3252 0.00585938c-2.5127 153.527 0.56543 307.211 1.80566 460.749c0.151367 18.5029 0.291992 37.0547 0.362305 55.6279c-130.204 -2.91699 -260.015 -4.91699 -389.701 -17.4189
c-12.9336 -61.207 -21.1934 -123.293 -24.6602 -185.762c-1.86523 -33.6201 -2.37695 -67.3047 -1.51465 -100.962c0.787109 -30.7568 -0.916992 -64.9697 13.8389 -92.8691c13.6504 -25.8076 -23.9102 -47.874 -39.167 -22.8965
c-20.4277 33.4424 -21.3281 72.6104 -22.6602 110.721c-1.41211 40.375 -0.87793 80.8096 1.62402 121.131c3.43457 55.4219 10.5781 110.683 21.1934 165.236c-59.3525 -6.98145 -118.451 -16.082 -177.06 -27.8291c-66.2314 -13.2734 -130.441 -32.8271 -195.972 -48.6719
c-26.3418 -6.36719 -34.9033 29.9971 -10.918 39.5986c65.0459 26.0449 136.151 41.2217 204.68 54.9697c62.6895 12.5781 125.95 22.1748 189.443 29.6738c2.16211 9.22461 4.40527 18.4219 6.77734 27.5869c31.7441 122.748 79.958 246.854 163.501 344.043
c36.2998 42.2295 89.8027 97.166 148.88 101.021c62.5928 4.08691 104.326 -48.6289 122.985 -102.25c23.8672 -68.5986 31.6357 -145.133 37.4639 -217.149c6.15137 -76.0488 6.57715 -152.356 6.49121 -228.61c-0.177734 -155.263 1.11035 -310.73 -3.06836 -465.944z
M453.378 201.975c125.59 12.7822 252.581 18.6641 378.655 17.6826c-0.716797 99.8027 -5.82227 199.864 -28.0615 297.192c-12.3135 53.9014 -44.8818 128.517 -112.062 90.5459c-47.2812 -26.7188 -86.8428 -72.7812 -117.18 -117.011
c-59.0879 -86.1465 -96.2393 -186.984 -121.352 -288.41z" />
    <glyph glyph-name="A" unicode="&#xc4;" horiz-adv-x="917" 
d="M884.261 -345c-0.943359 -34.9727 -53.7646 -35 -54.3252 0.00585938c-2.5127 153.527 0.56543 307.211 1.80566 460.749c0.151367 18.5029 0.291992 37.0547 0.362305 55.6279c-130.204 -2.91699 -260.015 -4.91699 -389.701 -17.4189
c-12.9336 -61.207 -21.1934 -123.293 -24.6602 -185.762c-1.86523 -33.6201 -2.37695 -67.3047 -1.51465 -100.962c0.787109 -30.7568 -0.916992 -64.9697 13.8389 -92.8691c13.6504 -25.8076 -23.9102 -47.874 -39.167 -22.8965
c-20.4277 33.4424 -21.3281 72.6104 -22.6602 110.721c-1.41211 40.375 -0.87793 80.8096 1.62402 121.131c3.43457 55.4219 10.5781 110.683 21.1934 165.236c-59.3525 -6.98145 -118.451 -16.082 -177.06 -27.8291c-66.2314 -13.2734 -130.441 -32.8271 -195.972 -48.6719
c-26.3418 -6.36719 -34.9033 29.9971 -10.918 39.5986c65.0459 26.0449 136.151 41.2217 204.68 54.9697c62.6895 12.5781 125.95 22.1748 189.443 29.6738c2.16211 9.22461 4.40527 18.4219 6.77734 27.5869c31.7441 122.748 79.958 246.854 163.501 344.043
c36.2998 42.2295 89.8027 97.166 148.88 101.021c62.5928 4.08691 104.326 -48.6289 122.985 -102.25c23.8672 -68.5986 31.6357 -145.133 37.4639 -217.149c6.15137 -76.0488 6.57715 -152.356 6.49121 -228.61c-0.177734 -155.263 1.11035 -310.73 -3.06836 -465.944z
M453.378 201.975c125.59 12.7822 252.581 18.6641 378.655 17.6826c-0.716797 99.8027 -5.82227 199.864 -28.0615 297.192c-12.3135 53.9014 -44.8818 128.517 -112.062 90.5459c-47.2812 -26.7188 -86.8428 -72.7812 -117.18 -117.011
c-59.0879 -86.1465 -96.2393 -186.984 -121.352 -288.41z" />
    <glyph glyph-name="A" unicode="&#xc3;" horiz-adv-x="917" 
d="M884.261 -345c-0.943359 -34.9727 -53.7646 -35 -54.3252 0.00585938c-2.5127 153.527 0.56543 307.211 1.80566 460.749c0.151367 18.5029 0.291992 37.0547 0.362305 55.6279c-130.204 -2.91699 -260.015 -4.91699 -389.701 -17.4189
c-12.9336 -61.207 -21.1934 -123.293 -24.6602 -185.762c-1.86523 -33.6201 -2.37695 -67.3047 -1.51465 -100.962c0.787109 -30.7568 -0.916992 -64.9697 13.8389 -92.8691c13.6504 -25.8076 -23.9102 -47.874 -39.167 -22.8965
c-20.4277 33.4424 -21.3281 72.6104 -22.6602 110.721c-1.41211 40.375 -0.87793 80.8096 1.62402 121.131c3.43457 55.4219 10.5781 110.683 21.1934 165.236c-59.3525 -6.98145 -118.451 -16.082 -177.06 -27.8291c-66.2314 -13.2734 -130.441 -32.8271 -195.972 -48.6719
c-26.3418 -6.36719 -34.9033 29.9971 -10.918 39.5986c65.0459 26.0449 136.151 41.2217 204.68 54.9697c62.6895 12.5781 125.95 22.1748 189.443 29.6738c2.16211 9.22461 4.40527 18.4219 6.77734 27.5869c31.7441 122.748 79.958 246.854 163.501 344.043
c36.2998 42.2295 89.8027 97.166 148.88 101.021c62.5928 4.08691 104.326 -48.6289 122.985 -102.25c23.8672 -68.5986 31.6357 -145.133 37.4639 -217.149c6.15137 -76.0488 6.57715 -152.356 6.49121 -228.61c-0.177734 -155.263 1.11035 -310.73 -3.06836 -465.944z
M453.378 201.975c125.59 12.7822 252.581 18.6641 378.655 17.6826c-0.716797 99.8027 -5.82227 199.864 -28.0615 297.192c-12.3135 53.9014 -44.8818 128.517 -112.062 90.5459c-47.2812 -26.7188 -86.8428 -72.7812 -117.18 -117.011
c-59.0879 -86.1465 -96.2393 -186.984 -121.352 -288.41z" />
    <glyph glyph-name="A" unicode="&#xc2;" horiz-adv-x="917" 
d="M884.261 -345c-0.943359 -34.9727 -53.7646 -35 -54.3252 0.00585938c-2.5127 153.527 0.56543 307.211 1.80566 460.749c0.151367 18.5029 0.291992 37.0547 0.362305 55.6279c-130.204 -2.91699 -260.015 -4.91699 -389.701 -17.4189
c-12.9336 -61.207 -21.1934 -123.293 -24.6602 -185.762c-1.86523 -33.6201 -2.37695 -67.3047 -1.51465 -100.962c0.787109 -30.7568 -0.916992 -64.9697 13.8389 -92.8691c13.6504 -25.8076 -23.9102 -47.874 -39.167 -22.8965
c-20.4277 33.4424 -21.3281 72.6104 -22.6602 110.721c-1.41211 40.375 -0.87793 80.8096 1.62402 121.131c3.43457 55.4219 10.5781 110.683 21.1934 165.236c-59.3525 -6.98145 -118.451 -16.082 -177.06 -27.8291c-66.2314 -13.2734 -130.441 -32.8271 -195.972 -48.6719
c-26.3418 -6.36719 -34.9033 29.9971 -10.918 39.5986c65.0459 26.0449 136.151 41.2217 204.68 54.9697c62.6895 12.5781 125.95 22.1748 189.443 29.6738c2.16211 9.22461 4.40527 18.4219 6.77734 27.5869c31.7441 122.748 79.958 246.854 163.501 344.043
c36.2998 42.2295 89.8027 97.166 148.88 101.021c62.5928 4.08691 104.326 -48.6289 122.985 -102.25c23.8672 -68.5986 31.6357 -145.133 37.4639 -217.149c6.15137 -76.0488 6.57715 -152.356 6.49121 -228.61c-0.177734 -155.263 1.11035 -310.73 -3.06836 -465.944z
M453.378 201.975c125.59 12.7822 252.581 18.6641 378.655 17.6826c-0.716797 99.8027 -5.82227 199.864 -28.0615 297.192c-12.3135 53.9014 -44.8818 128.517 -112.062 90.5459c-47.2812 -26.7188 -86.8428 -72.7812 -117.18 -117.011
c-59.0879 -86.1465 -96.2393 -186.984 -121.352 -288.41z" />
    <glyph glyph-name="A" unicode="&#xc1;" horiz-adv-x="917" 
d="M884.261 -345c-0.943359 -34.9727 -53.7646 -35 -54.3252 0.00585938c-2.5127 153.527 0.56543 307.211 1.80566 460.749c0.151367 18.5029 0.291992 37.0547 0.362305 55.6279c-130.204 -2.91699 -260.015 -4.91699 -389.701 -17.4189
c-12.9336 -61.207 -21.1934 -123.293 -24.6602 -185.762c-1.86523 -33.6201 -2.37695 -67.3047 -1.51465 -100.962c0.787109 -30.7568 -0.916992 -64.9697 13.8389 -92.8691c13.6504 -25.8076 -23.9102 -47.874 -39.167 -22.8965
c-20.4277 33.4424 -21.3281 72.6104 -22.6602 110.721c-1.41211 40.375 -0.87793 80.8096 1.62402 121.131c3.43457 55.4219 10.5781 110.683 21.1934 165.236c-59.3525 -6.98145 -118.451 -16.082 -177.06 -27.8291c-66.2314 -13.2734 -130.441 -32.8271 -195.972 -48.6719
c-26.3418 -6.36719 -34.9033 29.9971 -10.918 39.5986c65.0459 26.0449 136.151 41.2217 204.68 54.9697c62.6895 12.5781 125.95 22.1748 189.443 29.6738c2.16211 9.22461 4.40527 18.4219 6.77734 27.5869c31.7441 122.748 79.958 246.854 163.501 344.043
c36.2998 42.2295 89.8027 97.166 148.88 101.021c62.5928 4.08691 104.326 -48.6289 122.985 -102.25c23.8672 -68.5986 31.6357 -145.133 37.4639 -217.149c6.15137 -76.0488 6.57715 -152.356 6.49121 -228.61c-0.177734 -155.263 1.11035 -310.73 -3.06836 -465.944z
M453.378 201.975c125.59 12.7822 252.581 18.6641 378.655 17.6826c-0.716797 99.8027 -5.82227 199.864 -28.0615 297.192c-12.3135 53.9014 -44.8818 128.517 -112.062 90.5459c-47.2812 -26.7188 -86.8428 -72.7812 -117.18 -117.011
c-59.0879 -86.1465 -96.2393 -186.984 -121.352 -288.41z" />
    <glyph glyph-name="B" unicode="B" horiz-adv-x="801" 
d="M118.353 -385.78c-36.3047 -10.583 -51.501 45.6016 -15.5518 56.416c41.5234 12.4912 83.4404 25.2041 125.195 38.8223c-3.33203 2.61523 -5.86621 6.62109 -6.83105 12.3848c-19.6084 117.109 -30.9893 235.868 -33.8086 354.843
c-10.6367 15.1445 -11.5752 35.1191 -0.658203 53.9834c-0.226562 130.512 9.89844 261.013 31.1182 389.61c5.2998 32.1211 52.7754 17.9795 48.3711 -13.3379c-15.333 -109.087 -24.5195 -218.551 -27.3066 -328.079c28.8428 18.3896 61.8105 31.6846 92.6699 42.5371
c52.9902 18.6318 109.588 27.9209 165.728 28.4004c11.9199 0.102539 24.2764 -0.166992 36.8809 -0.857422c45.3027 36.3857 86.4053 78.0498 118.354 126.518c24.5244 37.2051 51.9717 86.9824 28.541 131.153c-17.9316 33.7979 -56.2852 54.0312 -90.999 66.2588
c-90.9453 32.04 -189.417 30.126 -283.947 18.75c-96.3799 -11.6016 -192.754 -33.7979 -276.496 -84.6211c-26.5195 -16.0986 -50.5322 25.3438 -24.2334 41.458c111.938 68.5879 248.305 92.8428 377.852 98.9297c107.232 5.04102 257.174 -5.36426 328.818 -98.3848
c69.2021 -89.8506 -7.29395 -201.18 -69.8213 -270.867c-11.71 -13.0518 -24.1152 -25.6943 -37.0059 -37.9707c62.2959 -12.4326 122.489 -38.5156 159.743 -87.333c68.2314 -89.4033 2.68457 -191.967 -66.6094 -256.603
c-160.109 -149.343 -373.792 -221.909 -580.002 -282.011zM466.247 199.837c-81.0518 -5.66602 -170.777 -32.208 -228.265 -89.835c0 -0.830078 0.0107422 -1.66602 0.0107422 -2.50195c2.67383 -0.350586 5.83301 -0.949219 7.56934 -0.992188
c11.0732 -0.280273 22.6592 1.70898 33.4199 3.84375c21.2627 4.21582 42.0137 11.0576 61.9668 19.4736c41.9492 17.6836 81.6562 41.7451 119.815 66.4043c1.83301 1.18652 3.65527 2.41016 5.48242 3.60742zM264.055 -266.347
c0.673828 -4.76074 -0.0742188 -9.02441 -1.68066 -12.7607c135.477 46.1328 267.578 103.911 377.016 197.051c55.6221 47.335 143.575 134.054 80.3516 209.381c-37.874 45.1299 -101.367 64.3115 -162.472 70.8779c-54.042 -43.4756 -114.311 -80.5352 -175.14 -109.465
c-41.6641 -19.8125 -95.2959 -41.4912 -143.526 -37.043c2.19922 -106.148 10.4961 -212.248 25.4512 -318.041z" />
    <glyph glyph-name="C" unicode="C" horiz-adv-x="424" 
d="M168.279 -323.188c-111.108 49.4756 -141.411 198.428 -151.515 306.323c-12.2812 131.094 5.74707 266.398 50.4463 390.166c20.8584 57.7617 46.0088 116.758 82.1299 166.768c32.0137 44.3213 80.0332 92.293 138.41 94.374
c61.708 2.19434 91.376 -54.5107 105.646 -105.997c18.4111 -66.4092 19.7051 -136.544 19.3545 -204.98c-0.172852 -33.5283 -51.0176 -33.3447 -51.9346 0c-1.75195 63.9297 -2.02734 128.587 -19.6191 190.597c-5.78516 20.3955 -14.0713 52.085 -35.3018 62.2207
c-25.8398 12.335 -57.249 -10.9824 -75.5576 -27.4795c-37.8682 -34.1318 -61.8535 -81.3379 -83.0195 -126.938c-21.5977 -46.5371 -38.5264 -95.333 -51.3086 -145.003c-26.2285 -101.9 -33.8301 -208.313 -22.2393 -312.931
c9.26758 -83.6719 37.8301 -227.909 138.048 -248.115c55.8105 -11.252 108.866 23.7861 147.667 59.9023c38.1055 35.4746 72.4316 76.9014 98.374 122.08c12.3887 21.5869 44.9785 2.37207 33.2744 -19.4521c-57.4814 -107.167 -182.251 -264.149 -322.855 -201.535z" />
    <glyph glyph-name="D" unicode="D" horiz-adv-x="763" 
d="M698.726 440.35c47.2871 -78.7607 57.0332 -175.068 39.8086 -264.116c-15.3223 -79.2354 -50.6133 -156.713 -98.9189 -225.775c14.6426 -8.23242 28.4707 -18.0986 41.1406 -29.9053c23.7705 -22.1523 -12.124 -58.0254 -35.6514 -35.6514
c-10.7822 10.2598 -22.6758 18.8105 -35.3232 25.9971c-53.3193 -65.6816 -118.392 -121.589 -188.387 -160.875c-74.0918 -41.583 -176.914 -80.416 -261.314 -47.8047c-38.1973 14.7617 -64.792 48.4248 -56.2471 90.8701
c8.24316 40.9248 43.3398 73.2998 75.5469 96.8115c9.63379 7.03516 19.5811 13.6338 29.7656 19.8555c-0.571289 6.2002 -1.1377 12.4004 -1.67188 18.6006c-5.69824 66.2529 -8.43652 132.765 -8.94824 199.255c-0.986328 128.533 8.14062 256.641 26.0557 383.858
c-2.36133 -1.0293 -4.7334 -2.04297 -7.07324 -3.11035c-35.9326 -16.3838 -70.0967 -36.6387 -102.401 -59.3086c-25.1611 -17.6562 -65.5039 -40.1436 -70.2803 -73.2832c-3.81738 -26.498 -49.9131 -20.002 -46.6621 6.3125
c6.06543 49.0762 47.5352 76.6523 84.9238 103.732c42.375 30.6924 87.8662 56.5977 136.296 76.459c90.8535 37.2539 192.624 48.4355 287.623 20.3525c78.4375 -23.1875 149.214 -71.4766 191.719 -142.274zM196.68 -249.019
c19.4189 -3.50977 39.5186 -3.18457 59.3584 -0.510742c-4.36133 0.641602 -8.8418 2.62012 -13.0898 6.3291c-20.8916 18.249 -21.7598 46.4727 -25.0645 72.2695c-1.4668 11.4619 -2.79883 22.9453 -4.06543 34.4287
c-13.2676 -10.2217 -25.3115 -21.4521 -35.5869 -33.7607c-11.4727 -13.748 -32.0352 -42.6182 -20.0127 -60.5498c7.60742 -11.3486 25.9805 -15.958 38.4609 -18.2061zM497.098 -124.727c19.3975 17.8076 38.2646 37.1816 56.1582 57.8359
c-46.4561 11.6934 -97.1982 11.3271 -142.824 5.63379c-47.0117 -5.86523 -100.833 -20.6914 -148.012 -44.8496c0.463867 -5.94629 0.851562 -11.8984 1.3584 -17.8398c1.19141 -13.9307 2.51758 -27.8506 3.85449 -41.7705
c1.2832 -13.3867 -0.543945 -33.1133 8.72363 -44.0732c12.168 -14.3945 5.24023 -31.5283 -7.27246 -37.6631c13.7266 2.53906 27.2207 6.06543 40.1709 10.1143c69.9141 21.8721 134.156 63.3037 187.843 112.612zM585.194 -27.1953
c63.6064 85.3008 108.46 187.384 108.039 291.678c-0.296875 73.5957 -24.541 147.86 -77.3105 200.592c-48.3701 48.3379 -114.969 75.6611 -182.445 82.7988c-52.6729 5.57422 -105.652 -1.2998 -156.082 -16.7568c1.38574 -3.22949 1.98438 -6.92285 1.44531 -11.0742
c-15.7422 -121.438 -24.584 -243.733 -25.7969 -366.19c-0.603516 -61.2451 0.938477 -122.463 4.29199 -183.61c0.620117 -11.3105 1.34766 -22.6162 2.06445 -33.9268c54.8076 24.9834 114.408 40.1494 173.723 46.4414c49.8906 5.28906 103.221 4.00098 152.071 -9.95117
z" />
    <glyph glyph-name="E" unicode="E" horiz-adv-x="642" 
d="M738.989 -217.632c-112.893 -7.81152 -224.904 -24.835 -334.939 -51.3545c-36.7842 -8.86328 -73.2881 -18.8535 -109.518 -29.7598c0.425781 -3.38574 0.835938 -6.77637 1.26758 -10.1621c3.95703 -30.9082 -49.8906 -37.7979 -54.2305 -7.33691
c-0.0429688 0.275391 -0.0751953 0.544922 -0.113281 0.820312c-0.436523 -0.145508 -0.878906 -0.275391 -1.31543 -0.420898c-25.3711 -8.42676 -50.6455 -17.1445 -75.7207 -26.4121c-14.0928 -5.21289 -28.0996 -10.6689 -42.1328 -16.0498
c-6.5127 -2.49609 -19.9424 -5.06738 -28.0674 -9.11035c-2.38867 -4.26953 -6.05469 -7.86035 -10.7393 -9.63379c-0.776367 -0.291016 -1.55273 -0.587891 -2.3291 -0.878906c-6.18945 -2.33984 -15.2471 0.226562 -19.5381 5.16504
c-0.614258 0.706055 -1.23438 1.41797 -1.84863 2.12402c-6.44824 7.41797 -7.71484 16.4375 -3.2666 25.3281c9.45605 18.9072 42.1865 26.293 60.1553 33.8086c28.6973 12.001 57.7344 23.2637 87.0039 33.8086c10.3564 3.73047 20.7939 7.25684 31.2256 10.7881
c-13.8613 106.402 -23.6406 213.354 -30.1699 320.468c-12.583 -4.12402 -25.1396 -8.31348 -37.6475 -12.6592c-14.1357 -4.90625 -36.4609 -8.16797 -46.7578 -19.4951c-15.8125 -17.3867 -40.3643 4.85254 -30.8594 23.8135
c13.8447 27.6143 58.5547 35.0811 85.3223 44.5908c9.09473 3.22949 18.2061 6.39941 27.3438 9.50488c-0.635742 12.1953 -1.30469 24.3906 -1.86035 36.5859c-3.48242 76.1572 -4.66895 152.4 -4.30273 228.638c0.280273 58.4463 -1.21289 119.006 9.95801 176.854
c-10.3135 -3.49316 -20.584 -7.09473 -30.7842 -10.9062c-28.1797 -10.5293 -55.6855 -22.5791 -82.8086 -35.5771c-22.1963 -10.6367 -47.082 -21.2627 -60.1455 -43.2217c-13.0146 -21.8828 -42.9736 -2.70605 -33.2744 19.4521
c22.6162 51.6748 93.6191 74.6201 141.72 94.6973c59.126 24.6699 120.517 43.4854 183.449 55.6152c115.917 22.3467 265.653 38.0303 372.077 -24.7783c26.4551 -15.6133 3.26758 -52.5869 -23.5967 -40.3701c-103.744 47.1631 -226.174 40.3164 -335.929 19.625
c-28.6494 -5.40234 -57.0127 -12.2168 -85.0361 -20.2441c-12.5459 -67.4072 -6.79297 -139.009 -5.57422 -207.111c1.29883 -72.7012 4.20508 -145.381 8.0918 -217.99c0.25293 -4.69043 0.576172 -9.38086 0.84082 -14.0713
c10.5781 3.2998 21.1777 6.54004 31.8096 9.67773c76.9014 22.7021 155.172 40.542 234.105 54.5215c30.6006 5.41797 43.4102 -41.5938 12.8633 -46.667c-70.7275 -11.7529 -140.852 -26.6973 -210.118 -45.2266c-22.0342 -5.89844 -43.9766 -12.125 -65.833 -18.6484
c7.12695 -106.876 17.8125 -213.401 30.665 -319.738c29.1074 8.88477 58.4199 17.085 87.8672 24.665c118.855 30.5898 240.326 49.9873 362.691 59.0771c33.2744 2.47461 33.1123 -49.5137 -0.000976562 -51.8047z" />
    <glyph glyph-name="E" unicode="&#xcb;" horiz-adv-x="642" 
d="M738.989 -217.632c-112.893 -7.81152 -224.904 -24.835 -334.939 -51.3545c-36.7842 -8.86328 -73.2881 -18.8535 -109.518 -29.7598c0.425781 -3.38574 0.835938 -6.77637 1.26758 -10.1621c3.95703 -30.9082 -49.8906 -37.7979 -54.2305 -7.33691
c-0.0429688 0.275391 -0.0751953 0.544922 -0.113281 0.820312c-0.436523 -0.145508 -0.878906 -0.275391 -1.31543 -0.420898c-25.3711 -8.42676 -50.6455 -17.1445 -75.7207 -26.4121c-14.0928 -5.21289 -28.0996 -10.6689 -42.1328 -16.0498
c-6.5127 -2.49609 -19.9424 -5.06738 -28.0674 -9.11035c-2.38867 -4.26953 -6.05469 -7.86035 -10.7393 -9.63379c-0.776367 -0.291016 -1.55273 -0.587891 -2.3291 -0.878906c-6.18945 -2.33984 -15.2471 0.226562 -19.5381 5.16504
c-0.614258 0.706055 -1.23438 1.41797 -1.84863 2.12402c-6.44824 7.41797 -7.71484 16.4375 -3.2666 25.3281c9.45605 18.9072 42.1865 26.293 60.1553 33.8086c28.6973 12.001 57.7344 23.2637 87.0039 33.8086c10.3564 3.73047 20.7939 7.25684 31.2256 10.7881
c-13.8613 106.402 -23.6406 213.354 -30.1699 320.468c-12.583 -4.12402 -25.1396 -8.31348 -37.6475 -12.6592c-14.1357 -4.90625 -36.4609 -8.16797 -46.7578 -19.4951c-15.8125 -17.3867 -40.3643 4.85254 -30.8594 23.8135
c13.8447 27.6143 58.5547 35.0811 85.3223 44.5908c9.09473 3.22949 18.2061 6.39941 27.3438 9.50488c-0.635742 12.1953 -1.30469 24.3906 -1.86035 36.5859c-3.48242 76.1572 -4.66895 152.4 -4.30273 228.638c0.280273 58.4463 -1.21289 119.006 9.95801 176.854
c-10.3135 -3.49316 -20.584 -7.09473 -30.7842 -10.9062c-28.1797 -10.5293 -55.6855 -22.5791 -82.8086 -35.5771c-22.1963 -10.6367 -47.082 -21.2627 -60.1455 -43.2217c-13.0146 -21.8828 -42.9736 -2.70605 -33.2744 19.4521
c22.6162 51.6748 93.6191 74.6201 141.72 94.6973c59.126 24.6699 120.517 43.4854 183.449 55.6152c115.917 22.3467 265.653 38.0303 372.077 -24.7783c26.4551 -15.6133 3.26758 -52.5869 -23.5967 -40.3701c-103.744 47.1631 -226.174 40.3164 -335.929 19.625
c-28.6494 -5.40234 -57.0127 -12.2168 -85.0361 -20.2441c-12.5459 -67.4072 -6.79297 -139.009 -5.57422 -207.111c1.29883 -72.7012 4.20508 -145.381 8.0918 -217.99c0.25293 -4.69043 0.576172 -9.38086 0.84082 -14.0713
c10.5781 3.2998 21.1777 6.54004 31.8096 9.67773c76.9014 22.7021 155.172 40.542 234.105 54.5215c30.6006 5.41797 43.4102 -41.5938 12.8633 -46.667c-70.7275 -11.7529 -140.852 -26.6973 -210.118 -45.2266c-22.0342 -5.89844 -43.9766 -12.125 -65.833 -18.6484
c7.12695 -106.876 17.8125 -213.401 30.665 -319.738c29.1074 8.88477 58.4199 17.085 87.8672 24.665c118.855 30.5898 240.326 49.9873 362.691 59.0771c33.2744 2.47461 33.1123 -49.5137 -0.000976562 -51.8047z" />
    <glyph glyph-name="E" unicode="&#xca;" horiz-adv-x="642" 
d="M738.989 -217.632c-112.893 -7.81152 -224.904 -24.835 -334.939 -51.3545c-36.7842 -8.86328 -73.2881 -18.8535 -109.518 -29.7598c0.425781 -3.38574 0.835938 -6.77637 1.26758 -10.1621c3.95703 -30.9082 -49.8906 -37.7979 -54.2305 -7.33691
c-0.0429688 0.275391 -0.0751953 0.544922 -0.113281 0.820312c-0.436523 -0.145508 -0.878906 -0.275391 -1.31543 -0.420898c-25.3711 -8.42676 -50.6455 -17.1445 -75.7207 -26.4121c-14.0928 -5.21289 -28.0996 -10.6689 -42.1328 -16.0498
c-6.5127 -2.49609 -19.9424 -5.06738 -28.0674 -9.11035c-2.38867 -4.26953 -6.05469 -7.86035 -10.7393 -9.63379c-0.776367 -0.291016 -1.55273 -0.587891 -2.3291 -0.878906c-6.18945 -2.33984 -15.2471 0.226562 -19.5381 5.16504
c-0.614258 0.706055 -1.23438 1.41797 -1.84863 2.12402c-6.44824 7.41797 -7.71484 16.4375 -3.2666 25.3281c9.45605 18.9072 42.1865 26.293 60.1553 33.8086c28.6973 12.001 57.7344 23.2637 87.0039 33.8086c10.3564 3.73047 20.7939 7.25684 31.2256 10.7881
c-13.8613 106.402 -23.6406 213.354 -30.1699 320.468c-12.583 -4.12402 -25.1396 -8.31348 -37.6475 -12.6592c-14.1357 -4.90625 -36.4609 -8.16797 -46.7578 -19.4951c-15.8125 -17.3867 -40.3643 4.85254 -30.8594 23.8135
c13.8447 27.6143 58.5547 35.0811 85.3223 44.5908c9.09473 3.22949 18.2061 6.39941 27.3438 9.50488c-0.635742 12.1953 -1.30469 24.3906 -1.86035 36.5859c-3.48242 76.1572 -4.66895 152.4 -4.30273 228.638c0.280273 58.4463 -1.21289 119.006 9.95801 176.854
c-10.3135 -3.49316 -20.584 -7.09473 -30.7842 -10.9062c-28.1797 -10.5293 -55.6855 -22.5791 -82.8086 -35.5771c-22.1963 -10.6367 -47.082 -21.2627 -60.1455 -43.2217c-13.0146 -21.8828 -42.9736 -2.70605 -33.2744 19.4521
c22.6162 51.6748 93.6191 74.6201 141.72 94.6973c59.126 24.6699 120.517 43.4854 183.449 55.6152c115.917 22.3467 265.653 38.0303 372.077 -24.7783c26.4551 -15.6133 3.26758 -52.5869 -23.5967 -40.3701c-103.744 47.1631 -226.174 40.3164 -335.929 19.625
c-28.6494 -5.40234 -57.0127 -12.2168 -85.0361 -20.2441c-12.5459 -67.4072 -6.79297 -139.009 -5.57422 -207.111c1.29883 -72.7012 4.20508 -145.381 8.0918 -217.99c0.25293 -4.69043 0.576172 -9.38086 0.84082 -14.0713
c10.5781 3.2998 21.1777 6.54004 31.8096 9.67773c76.9014 22.7021 155.172 40.542 234.105 54.5215c30.6006 5.41797 43.4102 -41.5938 12.8633 -46.667c-70.7275 -11.7529 -140.852 -26.6973 -210.118 -45.2266c-22.0342 -5.89844 -43.9766 -12.125 -65.833 -18.6484
c7.12695 -106.876 17.8125 -213.401 30.665 -319.738c29.1074 8.88477 58.4199 17.085 87.8672 24.665c118.855 30.5898 240.326 49.9873 362.691 59.0771c33.2744 2.47461 33.1123 -49.5137 -0.000976562 -51.8047z" />
    <glyph glyph-name="E" unicode="&#xc9;" horiz-adv-x="642" 
d="M738.989 -217.632c-112.893 -7.81152 -224.904 -24.835 -334.939 -51.3545c-36.7842 -8.86328 -73.2881 -18.8535 -109.518 -29.7598c0.425781 -3.38574 0.835938 -6.77637 1.26758 -10.1621c3.95703 -30.9082 -49.8906 -37.7979 -54.2305 -7.33691
c-0.0429688 0.275391 -0.0751953 0.544922 -0.113281 0.820312c-0.436523 -0.145508 -0.878906 -0.275391 -1.31543 -0.420898c-25.3711 -8.42676 -50.6455 -17.1445 -75.7207 -26.4121c-14.0928 -5.21289 -28.0996 -10.6689 -42.1328 -16.0498
c-6.5127 -2.49609 -19.9424 -5.06738 -28.0674 -9.11035c-2.38867 -4.26953 -6.05469 -7.86035 -10.7393 -9.63379c-0.776367 -0.291016 -1.55273 -0.587891 -2.3291 -0.878906c-6.18945 -2.33984 -15.2471 0.226562 -19.5381 5.16504
c-0.614258 0.706055 -1.23438 1.41797 -1.84863 2.12402c-6.44824 7.41797 -7.71484 16.4375 -3.2666 25.3281c9.45605 18.9072 42.1865 26.293 60.1553 33.8086c28.6973 12.001 57.7344 23.2637 87.0039 33.8086c10.3564 3.73047 20.7939 7.25684 31.2256 10.7881
c-13.8613 106.402 -23.6406 213.354 -30.1699 320.468c-12.583 -4.12402 -25.1396 -8.31348 -37.6475 -12.6592c-14.1357 -4.90625 -36.4609 -8.16797 -46.7578 -19.4951c-15.8125 -17.3867 -40.3643 4.85254 -30.8594 23.8135
c13.8447 27.6143 58.5547 35.0811 85.3223 44.5908c9.09473 3.22949 18.2061 6.39941 27.3438 9.50488c-0.635742 12.1953 -1.30469 24.3906 -1.86035 36.5859c-3.48242 76.1572 -4.66895 152.4 -4.30273 228.638c0.280273 58.4463 -1.21289 119.006 9.95801 176.854
c-10.3135 -3.49316 -20.584 -7.09473 -30.7842 -10.9062c-28.1797 -10.5293 -55.6855 -22.5791 -82.8086 -35.5771c-22.1963 -10.6367 -47.082 -21.2627 -60.1455 -43.2217c-13.0146 -21.8828 -42.9736 -2.70605 -33.2744 19.4521
c22.6162 51.6748 93.6191 74.6201 141.72 94.6973c59.126 24.6699 120.517 43.4854 183.449 55.6152c115.917 22.3467 265.653 38.0303 372.077 -24.7783c26.4551 -15.6133 3.26758 -52.5869 -23.5967 -40.3701c-103.744 47.1631 -226.174 40.3164 -335.929 19.625
c-28.6494 -5.40234 -57.0127 -12.2168 -85.0361 -20.2441c-12.5459 -67.4072 -6.79297 -139.009 -5.57422 -207.111c1.29883 -72.7012 4.20508 -145.381 8.0918 -217.99c0.25293 -4.69043 0.576172 -9.38086 0.84082 -14.0713
c10.5781 3.2998 21.1777 6.54004 31.8096 9.67773c76.9014 22.7021 155.172 40.542 234.105 54.5215c30.6006 5.41797 43.4102 -41.5938 12.8633 -46.667c-70.7275 -11.7529 -140.852 -26.6973 -210.118 -45.2266c-22.0342 -5.89844 -43.9766 -12.125 -65.833 -18.6484
c7.12695 -106.876 17.8125 -213.401 30.665 -319.738c29.1074 8.88477 58.4199 17.085 87.8672 24.665c118.855 30.5898 240.326 49.9873 362.691 59.0771c33.2744 2.47461 33.1123 -49.5137 -0.000976562 -51.8047z" />
    <glyph glyph-name="F" unicode="F" horiz-adv-x="692" 
d="M467.693 569.287c-17.0576 -4.78223 -34.0781 -9.79297 -51.0391 -14.9902c-9.87695 -126.711 -17.0635 -253.443 -19.2734 -380.494c77.3057 21.5547 155.797 37.1357 235.636 38.6777c31.1934 0.598633 31.123 -48.0039 -0.000976562 -48.3975
c-81.8613 -1.03516 -159.501 -19.2949 -236.278 -41.7549c-0.485352 -68.1621 0.134766 -136.394 2.90625 -204.496c2.50195 -61.4932 0.0869141 -133.596 30.0889 -188.964c12.7129 -23.457 -20.1523 -51.6045 -38.2998 -29.5488
c-40.8223 49.6162 -40.3105 127.25 -44.0898 188.338c-4.48535 72.5234 -5.52539 145.354 -5.6709 218.001c-62.3604 -19.3281 -124.678 -39.3838 -188.764 -53.1367c-24.7891 -5.32129 -34.4668 29.9209 -10.4492 37.8945c65.6494 21.7969 132.08 45.9121 199.39 66.9268
c1.00781 126.495 6.89551 253.146 19.1279 379.032c-42.7744 -14.4922 -85.0254 -30.5146 -126.317 -48.667c-36.2295 -15.9258 -71.7959 -33.3506 -106.43 -52.5059c-17.5381 -9.69336 -35.0703 -19.6133 -51.7021 -30.8164
c-5.09473 -3.43457 -22.3311 -13.7861 -32.752 -23.5498c2.14062 -0.226562 4.125 -0.382812 5.5918 -0.388672c24.7676 -0.0917969 24.7031 -38.1055 0 -38.4131c-34.5576 -0.431641 -72.3398 17.5371 -44.9844 55.6152c25.377 35.3291 68.459 58.1289 105.465 78.7939
c86.6748 48.3975 179.216 86.3682 273.568 116.926c98.0723 31.7656 198.576 57.04 300.729 71.4404c91.6572 12.917 197.639 28.0068 283.705 -14.7295c24.1094 -11.9736 6.54492 -53.874 -18.4004 -43.6523c-75.7793 31.0479 -159.149 22.9395 -238.633 13.2842
c-82.2217 -9.99023 -163.431 -28.0781 -243.124 -50.4248z" />
    <glyph glyph-name="G" unicode="G" horiz-adv-x="830" 
d="M583.643 -17.1846c36.0889 61.46 83.2812 115.834 138.472 160.533c-2.33398 41.4697 -9.20215 82.0605 -22.335 119.777c-8.48535 24.3896 -23.6348 64.5166 -56.2305 54.5801c-23.7432 -7.24023 -44.8066 -32.126 -60.3984 -50.2031
c-38.1328 -44.208 -70.7334 -93.4785 -103.976 -141.374c-62.8994 -90.627 -126.171 -185.454 -210.383 -258.025c-65.3203 -56.29 -199.412 -130.684 -253.292 -19.6611c-47.6533 98.1855 -6.88965 228.18 33.335 321.562c40.7686 94.6543 100.072 181.793 173.479 254.192
c76.0117 74.9766 168.482 138.782 271.812 168.752c46.4941 13.4834 104.224 26.0068 149.499 2.19336c38.4932 -20.25 57.6426 -65.7305 37.6357 -105.399c-9.80664 -19.4404 -41.0166 -5.65527 -34.7578 14.6533c11.71 37.998 -32.0781 53.5029 -61.665 52.5381
c-30.1699 -0.986328 -61.1045 -9.91406 -89.4951 -19.6611c-61.1855 -21.0098 -118.203 -55.374 -168.671 -95.5654c-92.8428 -73.9307 -167.431 -169.647 -217.311 -277.257c-23.7539 -51.249 -42.8496 -106.612 -51.5029 -162.558
c-6.17285 -39.9111 -16.0176 -133.671 32.2021 -153.586c48.0146 -19.834 115.379 34.0195 148.362 63.1865c44.8555 39.6689 83.9209 86.0127 119.973 133.672c67.4336 89.1445 123.163 191.082 200.743 272.048c31.6357 33.0215 80.9707 70.3506 128.414 46.1973
c44.7363 -22.7725 63.4336 -81.1816 73.4502 -126.619c4.2002 -19.0361 7.35449 -38.4287 9.69434 -57.999c7.66602 5.02441 15.4023 9.93066 23.3008 14.5996c27.2471 16.1094 51.9287 -26.3525 24.7461 -42.332c-15.0635 -8.85254 -29.6143 -18.5029 -43.7178 -28.7246
c2.76074 -80.4102 -8.19434 -162.379 -28.9395 -238.094c-14.627 -53.3838 -33.7822 -108.11 -70.6533 -150.485c-29.1182 -33.4688 -80.0605 -59.9072 -121.994 -32.7295c-44.0303 28.5303 -39.3721 92.9502 -29.4844 137.121
c11.3057 50.4941 33.5664 100.169 59.6875 144.668zM722.26 78.7939c-54.1172 -50.6992 -97.7695 -112.255 -126.65 -181.241c-12.5293 -29.9219 -23.7109 -62.1729 -26.6973 -94.6123c-2.45312 -26.6006 0.177734 -71.6719 37.7822 -54.0645
c53.8906 25.2363 74.4688 107.943 88.2324 159.91c14.0225 52.9424 24.4434 111.389 27.333 170.008z" />
    <glyph glyph-name="H" unicode="H" horiz-adv-x="657" 
d="M243.094 -211.076c16.4541 -22.7461 -21.7227 -51.8379 -38.791 -29.9551c-20.6758 26.5039 -25.6299 57.4229 -30.6064 90.0674c-5.46094 35.8516 -8.88965 71.9785 -11.3701 108.148c-2.18848 31.873 -3.81152 63.7891 -5.08887 95.7217
c-45.0273 -10.6104 -89.8936 -21.8994 -134.555 -33.9541c-31.8135 -8.59375 -45.3457 41.0547 -13.5693 49.2227c48.6826 12.5186 97.5166 24.3525 146.475 35.5498c-0.673828 26.584 -1.15918 53.168 -1.23438 79.752c-0.447266 152.767 9.58594 305.469 29.5664 456.909
c4.43164 33.5928 57.751 34.1211 53.4492 0c-18.0117 -142.863 -28.0283 -286.572 -29.29 -430.573c-0.275391 -31.415 -0.0546875 -62.835 0.511719 -94.25c114.688 25.0098 230.158 46.1709 346.464 62.9541c-1.88184 136.588 3.93555 273.358 19.1172 409.138
c3.84961 34.418 57.9668 35.1299 54.5869 0c-12.9658 -134.722 -20.2227 -269.875 -18.9561 -405.249c1.25586 -134.291 6.18359 -269.93 35.7441 -401.342c6.82031 -30.3203 -37.3877 -42.5742 -46.542 -12.8311c-35.3613 114.883 -40.8984 239.776 -43.1631 360.304
c-116.015 -17.0742 -231.49 -38.1221 -345.963 -63.6387c0.765625 -23.6406 1.68164 -47.2812 2.92676 -70.9004c1.89746 -35.9648 3.9248 -72.0059 7.66113 -107.836c3.20801 -30.7461 3.91406 -71.375 22.627 -97.2373z" />
    <glyph glyph-name="I" unicode="I" horiz-adv-x="362" 
d="M261.731 -269.787c-29 -10.3779 -40.0889 16.8662 -45.3506 40.3672c-51.4053 -21.6348 -103.83 -41.3018 -156.6 -54.4619c-22.6436 -5.65039 -38.375 27.8398 -16.3086 38.6816c40.5264 19.9102 83.9043 34.623 125.558 52.0586
c12.9336 5.41309 25.8076 10.9609 38.6982 16.4658c-3.94141 27.1885 -7.40234 54.457 -10.6104 81.7256c-9.76367 82.9551 -15.3008 166.455 -17.4951 249.944c-3.28906 125.218 1.37402 250.246 13.3857 374.735c-57.1963 -16.1309 -113.578 -35.8301 -169.642 -55.6484
c-29.5332 -10.4375 -41.8574 36.1426 -12.8633 46.666c61.9834 22.4922 124.527 44.8447 188.145 62.4629c2.79297 24.6113 5.83398 49.2012 9.19238 73.7637c4.26953 31.2422 59.0557 23.5322 54.9746 -7.44043c-2.26953 -17.2412 -4.38867 -34.5098 -6.39453 -51.7891
c50.543 11.2412 101.862 18.665 154.212 19.9697c33.0156 0.825195 32.8428 -50.1709 -0.000976562 -51.1738c-54.3867 -1.66602 -107.566 -9.90918 -159.953 -22.002c-11.2188 -112.073 -16.8311 -224.702 -16.3242 -337.353
c0.333984 -74.7822 3.30469 -149.592 8.63086 -224.175c2.47461 -34.666 5.4834 -69.3154 8.92285 -103.9c1.16406 -11.7207 2.51758 -23.4248 3.81641 -35.1289c15.2793 6.6416 30.5693 13.2783 45.8213 20.001c29.9863 13.2139 56.1768 -30.9141 25.959 -44.4082
c-22.2715 -9.94727 -44.8555 -20.1533 -67.6768 -30.2246c0.415039 -6.22656 0.932617 -11.7959 1.60156 -15.2354c19.2949 -4.93848 23.4141 -35.626 0.301758 -43.9014z" />
    <glyph glyph-name="I" unicode="&#xcf;" horiz-adv-x="362" 
d="M261.731 -269.787c-29 -10.3779 -40.0889 16.8662 -45.3506 40.3672c-51.4053 -21.6348 -103.83 -41.3018 -156.6 -54.4619c-22.6436 -5.65039 -38.375 27.8398 -16.3086 38.6816c40.5264 19.9102 83.9043 34.623 125.558 52.0586
c12.9336 5.41309 25.8076 10.9609 38.6982 16.4658c-3.94141 27.1885 -7.40234 54.457 -10.6104 81.7256c-9.76367 82.9551 -15.3008 166.455 -17.4951 249.944c-3.28906 125.218 1.37402 250.246 13.3857 374.735c-57.1963 -16.1309 -113.578 -35.8301 -169.642 -55.6484
c-29.5332 -10.4375 -41.8574 36.1426 -12.8633 46.666c61.9834 22.4922 124.527 44.8447 188.145 62.4629c2.79297 24.6113 5.83398 49.2012 9.19238 73.7637c4.26953 31.2422 59.0557 23.5322 54.9746 -7.44043c-2.26953 -17.2412 -4.38867 -34.5098 -6.39453 -51.7891
c50.543 11.2412 101.862 18.665 154.212 19.9697c33.0156 0.825195 32.8428 -50.1709 -0.000976562 -51.1738c-54.3867 -1.66602 -107.566 -9.90918 -159.953 -22.002c-11.2188 -112.073 -16.8311 -224.702 -16.3242 -337.353
c0.333984 -74.7822 3.30469 -149.592 8.63086 -224.175c2.47461 -34.666 5.4834 -69.3154 8.92285 -103.9c1.16406 -11.7207 2.51758 -23.4248 3.81641 -35.1289c15.2793 6.6416 30.5693 13.2783 45.8213 20.001c29.9863 13.2139 56.1768 -30.9141 25.959 -44.4082
c-22.2715 -9.94727 -44.8555 -20.1533 -67.6768 -30.2246c0.415039 -6.22656 0.932617 -11.7959 1.60156 -15.2354c19.2949 -4.93848 23.4141 -35.626 0.301758 -43.9014z" />
    <glyph glyph-name="I" unicode="&#xce;" horiz-adv-x="362" 
d="M261.731 -269.787c-29 -10.3779 -40.0889 16.8662 -45.3506 40.3672c-51.4053 -21.6348 -103.83 -41.3018 -156.6 -54.4619c-22.6436 -5.65039 -38.375 27.8398 -16.3086 38.6816c40.5264 19.9102 83.9043 34.623 125.558 52.0586
c12.9336 5.41309 25.8076 10.9609 38.6982 16.4658c-3.94141 27.1885 -7.40234 54.457 -10.6104 81.7256c-9.76367 82.9551 -15.3008 166.455 -17.4951 249.944c-3.28906 125.218 1.37402 250.246 13.3857 374.735c-57.1963 -16.1309 -113.578 -35.8301 -169.642 -55.6484
c-29.5332 -10.4375 -41.8574 36.1426 -12.8633 46.666c61.9834 22.4922 124.527 44.8447 188.145 62.4629c2.79297 24.6113 5.83398 49.2012 9.19238 73.7637c4.26953 31.2422 59.0557 23.5322 54.9746 -7.44043c-2.26953 -17.2412 -4.38867 -34.5098 -6.39453 -51.7891
c50.543 11.2412 101.862 18.665 154.212 19.9697c33.0156 0.825195 32.8428 -50.1709 -0.000976562 -51.1738c-54.3867 -1.66602 -107.566 -9.90918 -159.953 -22.002c-11.2188 -112.073 -16.8311 -224.702 -16.3242 -337.353
c0.333984 -74.7822 3.30469 -149.592 8.63086 -224.175c2.47461 -34.666 5.4834 -69.3154 8.92285 -103.9c1.16406 -11.7207 2.51758 -23.4248 3.81641 -35.1289c15.2793 6.6416 30.5693 13.2783 45.8213 20.001c29.9863 13.2139 56.1768 -30.9141 25.959 -44.4082
c-22.2715 -9.94727 -44.8555 -20.1533 -67.6768 -30.2246c0.415039 -6.22656 0.932617 -11.7959 1.60156 -15.2354c19.2949 -4.93848 23.4141 -35.626 0.301758 -43.9014z" />
    <glyph glyph-name="I" unicode="&#xcd;" horiz-adv-x="362" 
d="M261.731 -269.787c-29 -10.3779 -40.0889 16.8662 -45.3506 40.3672c-51.4053 -21.6348 -103.83 -41.3018 -156.6 -54.4619c-22.6436 -5.65039 -38.375 27.8398 -16.3086 38.6816c40.5264 19.9102 83.9043 34.623 125.558 52.0586
c12.9336 5.41309 25.8076 10.9609 38.6982 16.4658c-3.94141 27.1885 -7.40234 54.457 -10.6104 81.7256c-9.76367 82.9551 -15.3008 166.455 -17.4951 249.944c-3.28906 125.218 1.37402 250.246 13.3857 374.735c-57.1963 -16.1309 -113.578 -35.8301 -169.642 -55.6484
c-29.5332 -10.4375 -41.8574 36.1426 -12.8633 46.666c61.9834 22.4922 124.527 44.8447 188.145 62.4629c2.79297 24.6113 5.83398 49.2012 9.19238 73.7637c4.26953 31.2422 59.0557 23.5322 54.9746 -7.44043c-2.26953 -17.2412 -4.38867 -34.5098 -6.39453 -51.7891
c50.543 11.2412 101.862 18.665 154.212 19.9697c33.0156 0.825195 32.8428 -50.1709 -0.000976562 -51.1738c-54.3867 -1.66602 -107.566 -9.90918 -159.953 -22.002c-11.2188 -112.073 -16.8311 -224.702 -16.3242 -337.353
c0.333984 -74.7822 3.30469 -149.592 8.63086 -224.175c2.47461 -34.666 5.4834 -69.3154 8.92285 -103.9c1.16406 -11.7207 2.51758 -23.4248 3.81641 -35.1289c15.2793 6.6416 30.5693 13.2783 45.8213 20.001c29.9863 13.2139 56.1768 -30.9141 25.959 -44.4082
c-22.2715 -9.94727 -44.8555 -20.1533 -67.6768 -30.2246c0.415039 -6.22656 0.932617 -11.7959 1.60156 -15.2354c19.2949 -4.93848 23.4141 -35.626 0.301758 -43.9014z" />
    <glyph glyph-name="J" unicode="J" horiz-adv-x="655" 
d="M275.307 -134.019c-9.91992 92.002 2.96387 187.366 21.7686 277.503c35.5879 170.606 107.303 335.391 209.834 476.566c-3.54785 6.39941 -7.26758 12.6748 -11.4082 18.6533c-25.6084 37.0215 -63.5791 42.8711 -105.674 36.0244
c-40.709 -6.62012 -81.1055 -17.6396 -120.893 -28.3408c-84.2764 -22.6699 -166.606 -51.1572 -247.944 -82.6855c-24.2715 -9.4082 -41.3076 31.8398 -17.6719 41.916c104.105 44.3867 212.189 79.1924 322.263 105.426c45.7236 10.8955 96.0781 24.0938 142.502 9.44043
c38.752 -12.2324 65.584 -43.0918 84.3291 -77.7734c9.35352 -4.83594 15.5537 -14.4268 11.9795 -25.1338c36.2559 -84.3682 45.2432 -181.615 54.209 -272.032c10.0381 -101.21 11.3857 -203.563 1.20703 -304.816c-9.17578 -91.2578 -23.6562 -187.664 -61.46 -271.962
c-29.959 -66.8135 -99.1074 -148.464 -180.882 -108.79c-72.8848 35.3613 -94.3477 133.53 -102.159 206.005zM343.117 125.989c-16.2334 -78.5723 -26.7539 -160.188 -21.2061 -240.491c2.88965 -41.8467 10.54 -85.9414 28.7354 -124.085
c12.5674 -26.3525 34.7305 -58.7705 67.5098 -58.5283c35.8193 0.269531 61.8105 37.6416 77.4717 65.3799c20.1152 35.6309 31.5771 75.3857 41.2441 114.92c20.3359 83.1768 30.8223 168.288 33.626 253.81c2.83594 86.5244 -1.94629 173.291 -12.0391 259.238
c-6.29688 53.6104 -11.5801 114.86 -28.8047 169.781c-89.4893 -133.66 -153.839 -281.742 -186.537 -440.024z" />
    <glyph glyph-name="K" unicode="K" horiz-adv-x="640" 
d="M659.265 -135.485c-100.008 45.6689 -202.869 84.7861 -308.021 116.972c-71.2832 21.8135 -145.035 44.2734 -219.769 54.0479c1.61719 -18.8213 3.47754 -37.6201 5.63379 -56.3867c4.43164 -38.6338 10.292 -77.0947 17.5488 -115.297
c5.57422 -29.3496 8.57715 -64.2744 33.5283 -84.001c27.1885 -21.4893 -11.0947 -58.915 -37.9697 -37.9697c-24.6973 19.2471 -35.3232 48.915 -42.041 78.5127c-8.65332 38.1377 -15.1553 76.874 -20.6709 115.583c-4.93848 34.6602 -8.84668 69.418 -11.9307 104.245
c-14.7832 0.517578 -29.5928 0.46875 -44.4131 -0.356445c-26.1152 -1.45605 -34.3154 35.6357 -13.0088 48.041c17.4189 10.1406 34.6982 20.5293 51.8906 31.0479c-1.04004 20.374 -1.80566 40.7695 -2.30176 61.1807c-4.04883 166.25 7.10547 332.479 22.0498 497.958
c3.02441 33.501 54.9912 34.2939 52.9424 0c-9.27832 -155.473 -21.2412 -311.021 -19.4678 -466.888c0.220703 -19.3008 0.641602 -38.6064 1.28809 -57.9072c80.2646 51.8691 157.65 108.138 230.762 169.781c95.9863 80.9277 211.111 175.604 251.099 299.214
c7.65527 23.6729 44.9141 13.5859 37.4043 -10.3135c-41.4053 -131.773 -144.874 -229.247 -246.473 -317.399c-84.8047 -73.5801 -175.491 -139.957 -270.097 -200.264c0.118164 -2.04297 0.269531 -4.08594 0.393555 -6.12891
c80.7773 -9.21387 160.697 -32.9082 237.528 -56.2256c109.594 -33.2588 216.659 -74.2217 320.942 -121.514c31.1396 -14.125 4.0918 -60.0635 -26.8486 -45.9326z" />
    <glyph glyph-name="L" unicode="L" horiz-adv-x="145" 
d="M494.768 -190.379c33.4043 -1.32617 33.3555 -53.583 -0.0107422 -51.9229c-136.599 6.76562 -275.467 13.4131 -411.822 -0.491211c-3.86035 -0.399414 -7.71484 -0.874023 -11.5752 -1.31641c-19.8291 -53.5186 -54.9697 -103.172 -108.915 -126.117
c-31.2744 -13.2998 -64.9482 -15.5586 -98.417 -11.4131c-24.9834 3.09473 -63.6982 6.98145 -82.4648 26.5459c-48.2842 50.3545 45.1514 96.9834 80.5449 110.974c52.4844 20.7402 107.486 33.7871 163.141 42.5156c12.9658 45.0713 18.4004 94.2881 23.0312 134
c29.3496 251.626 -0.938477 503.371 -32.6553 753.127c-2.79785 22.0234 33.8623 26.3311 38.3477 5.19238c35.1406 -165.582 57.5518 -334.36 61.6924 -503.748c1.7793 -72.8086 -0.376953 -145.796 -6.88379 -218.341
c-4.77148 -53.1797 -9.5752 -109.222 -22.2715 -162.229c135.024 14.2598 273.024 8.59375 408.259 3.22363zM-116.741 -330.071c61.1475 -1.54199 98.21 30.7031 121.613 75.8545c-31.6787 -6.08105 -62.9961 -13.9736 -93.6289 -24.1904
c-15.8506 -5.2832 -31.7012 -10.9277 -46.9688 -17.7314c-12.0547 -5.375 -23.2734 -16.2109 -34.7891 -20.8477c-5.76855 -2.32324 -18.2549 1.19141 -5.95703 -3.42871c5.67188 -2.13477 13.0254 -3.2832 18.7891 -4.50195
c13.5 -2.84668 27.1348 -4.80957 40.9414 -5.1543z" />
    <glyph glyph-name="M" unicode="M" horiz-adv-x="804" 
d="M742.606 506.069c21.0371 -125.018 26.9531 -252.878 32.4736 -379.346c5.69336 -130.193 7.93652 -260.575 8.7666 -390.882c0.237305 -37.2539 -57.0938 -37.1133 -57.7461 0c-2.31836 132.091 -3.16992 264.188 -7.62891 396.235
c-3.93555 116.511 -7.7959 234.396 -24.8535 349.861c-7.71484 52.2256 -15.877 109.896 -40.542 157.241c-4.97656 9.55371 -5.8125 16.8154 -18.1104 13.6455c-3.82812 -0.986328 -11.5381 -10.5615 -13.6025 -12.8311
c-7.26758 -7.99023 -13.376 -16.9561 -18.9941 -26.1592c-12.6475 -20.708 -22.1572 -43.001 -30.7939 -65.6172c-39.8467 -104.364 -64.377 -214.114 -85.4248 -323.6c-10.7822 -56.0957 -20.2275 -112.45 -28.1045 -169.031
c-6.47461 -46.5 -3.49902 -107.108 -32.7842 -146.433c-13.4238 -18.0283 -43.6523 -18.2764 -50.2998 6.57227c-31.7383 118.618 -29.9648 243.712 -43.9062 364.967c-3.3584 29.1934 -7.71973 58.2578 -13.5908 87.0576
c-2.6582 13.0469 -5.48828 26.1152 -8.95996 38.9736c-1.19727 4.44238 -1.66602 11.8662 -5.16992 15.1875c-1.09473 1.04004 -1.56934 1.73535 -1.7793 2.16113c0.0644531 -0.727539 -0.269531 -2.33984 -2.81934 -4.86816
c-19.0469 -18.8799 -30.1475 -52.165 -39.9004 -76.5713c-9.87695 -24.708 -18.5029 -49.9229 -26.498 -75.2998c-16.0283 -50.8662 -29.2314 -102.585 -42.5801 -154.201c-7.10059 -27.4473 -14.3145 -54.873 -22.1592 -82.1201
c-6.44238 -22.374 -11.2891 -47.8535 -22.6543 -68.3623c-22.5566 -40.709 -66.3125 -31.8184 -83.4941 7.4082c-20.0176 45.7129 -19.3223 99.5771 -22.7295 148.514c-8.02246 115.238 -13.9961 230.913 -15.7158 346.426c-0.415039 27.9756 40.9307 27.2314 42.9629 0
c9.65039 -129.417 15.7158 -259.05 27.0371 -388.359c1.34277 -15.3057 2.44238 -30.6973 5.03027 -45.8525c1.19141 -6.96582 5.63379 -17.2959 8.24316 -26.2295c4.12402 11.543 7.55273 23.4033 11.0898 35.1182c15.9092 52.6992 29.3496 106.083 43.7822 159.197
c13.9629 51.3838 29.0527 102.552 48.5264 152.156c14.7451 37.5605 34.1963 99.1553 73.0938 118.946c40.833 20.7725 65.46 -22.2012 74.4414 -55.0234c14.2275 -51.9883 21.959 -105.69 28.1484 -159.145c7.49902 -64.7764 12.6641 -129.401 20.6377 -193.714
c4.14062 28.1748 8.54492 56.3223 13.3164 84.4004c11.5752 68.1289 25.123 135.951 40.833 203.245c14.416 61.7402 30.8975 123.131 51.9287 182.979c17.3115 49.249 36.1758 99.7383 70.5938 139.871c32.7676 38.2129 80.7119 47.8096 109.599 0.733398
c30.2285 -49.249 40.9033 -111.194 50.3379 -167.253z" />
    <glyph glyph-name="N" unicode="N" horiz-adv-x="599" 
d="M425.395 657.202c-26.4385 -29.7432 -45.9756 -65.4336 -63.4814 -100.946c-73.8711 -149.748 -113.341 -313.664 -153.808 -474.776c-10.0332 -39.9277 -20.0938 -79.8496 -30.7148 -119.626c-5.51562 -20.6484 -11.1924 -41.2539 -16.9072 -61.8486
c-3.70898 -13.3545 -6.83008 -27.916 -17.1221 -37.9541c-24.0127 -23.4307 -52.7588 -4.98145 -64.0107 20.5029c-16.3789 37.0977 -22.1475 78.1523 -28.0186 117.956c-25.5762 173.415 -25.1123 349.197 -14.4375 523.804c1.86035 30.4551 49.1523 30.7139 47.6377 0
c-4.9873 -101.06 -6.69141 -202.329 -1.76953 -303.426c4.49609 -92.4111 9.54199 -191.065 34.1426 -281.008c4.28613 15.1113 8.44238 30.2666 12.5186 45.4375c11.1064 41.3506 21.6465 82.8525 32.2246 124.344c20.708 81.2354 41.4805 162.503 66.7812 242.455
c24.7832 78.3184 53.8691 155.646 90.6318 229.188c16.9551 33.916 36.0674 66.5869 59.7139 96.3037c19.2842 24.2334 44.6445 51.6211 78.6582 47.2598c33.248 -4.25879 48.7207 -36.0938 59.7139 -64.085c14.3945 -36.6602 20.0557 -75.8115 24.6602 -114.704
c10.3242 -87.2412 14.2383 -175.173 17.8613 -262.905c7.41309 -179.62 18.4707 -359.569 21.0049 -539.33c0.523438 -37.2158 -55.2168 -36.5527 -57.3682 0c-11.7588 200.086 -13.5918 401.051 -20.2285 601.368c-2.80859 84.6592 -2.84082 173.146 -20.2061 256.344
c-4.23242 20.2871 -9.34375 42.9141 -19.8193 61.0068c-4.83594 8.35059 -6.59863 13.5156 -16.1895 12.2383c-8.54004 -1.1377 -16.1035 -11.5645 -21.4678 -17.5977z" />
    <glyph glyph-name="O" unicode="O" horiz-adv-x="671" 
d="M347.305 -272.801c-108.801 -23.4678 -149.178 103.068 -161.2 186.153c-8.85742 61.2344 -6.80859 122.722 0.0810547 183.875c-41.3779 4.20508 -82.4912 26.5576 -109.442 60.9375c-63.1855 80.5938 -72.9385 197.201 -51.3838 294.26
c38.2451 172.202 213.779 341.957 401.39 281.688c84.3467 -27.0967 150.18 -96.6602 184.576 -176.898c42.0518 -98.0996 41.7715 -207.655 27.2686 -311.68c-14.918 -107.021 -47.2979 -211.132 -95.3066 -307.942c-39.5557 -79.7637 -100.633 -189.826 -195.982 -210.394
zM241.731 103.438c-7.80664 -61.6221 -10.8447 -123.81 -1.29102 -184.984c6.35645 -40.6123 16.0928 -93.5117 46.5859 -123.729c36.1533 -35.8359 84.5508 -1.71484 113.216 26.417c60.4844 59.3633 100.692 142.367 131.115 220.438
c31.6309 81.1709 53.0449 166.946 61.2988 253.729c14.1309 148.502 -21.9961 348.199 -190.716 392.963c-160.325 42.5371 -298.627 -110.073 -329.033 -253.324c-15.4512 -72.7871 -9.73633 -157.111 27.0322 -223.035
c17.2627 -30.9512 43.0439 -58.7266 78.1465 -68.3877c4.49121 -1.23438 9.10645 -2.13477 13.7646 -2.75488c4.72852 32.5098 10.4053 64.8896 16.1523 97.043c6.22656 34.8223 59.1846 19.9805 53.001 -14.6094c-4.22168 -23.6084 -8.46973 -47.459 -12.3086 -71.4609
c6.97656 4.46387 13.1982 10.249 18.2285 17.5166c14.0498 20.2822 47.3516 1.26172 33.3887 -19.5166c-15.6777 -23.333 -36.1104 -38.3418 -58.5811 -46.3047z" />
    <glyph glyph-name="O" unicode="&#xd6;" horiz-adv-x="671" 
d="M347.305 -272.801c-108.801 -23.4678 -149.178 103.068 -161.2 186.153c-8.85742 61.2344 -6.80859 122.722 0.0810547 183.875c-41.3779 4.20508 -82.4912 26.5576 -109.442 60.9375c-63.1855 80.5938 -72.9385 197.201 -51.3838 294.26
c38.2451 172.202 213.779 341.957 401.39 281.688c84.3467 -27.0967 150.18 -96.6602 184.576 -176.898c42.0518 -98.0996 41.7715 -207.655 27.2686 -311.68c-14.918 -107.021 -47.2979 -211.132 -95.3066 -307.942c-39.5557 -79.7637 -100.633 -189.826 -195.982 -210.394
zM241.731 103.438c-7.80664 -61.6221 -10.8447 -123.81 -1.29102 -184.984c6.35645 -40.6123 16.0928 -93.5117 46.5859 -123.729c36.1533 -35.8359 84.5508 -1.71484 113.216 26.417c60.4844 59.3633 100.692 142.367 131.115 220.438
c31.6309 81.1709 53.0449 166.946 61.2988 253.729c14.1309 148.502 -21.9961 348.199 -190.716 392.963c-160.325 42.5371 -298.627 -110.073 -329.033 -253.324c-15.4512 -72.7871 -9.73633 -157.111 27.0322 -223.035
c17.2627 -30.9512 43.0439 -58.7266 78.1465 -68.3877c4.49121 -1.23438 9.10645 -2.13477 13.7646 -2.75488c4.72852 32.5098 10.4053 64.8896 16.1523 97.043c6.22656 34.8223 59.1846 19.9805 53.001 -14.6094c-4.22168 -23.6084 -8.46973 -47.459 -12.3086 -71.4609
c6.97656 4.46387 13.1982 10.249 18.2285 17.5166c14.0498 20.2822 47.3516 1.26172 33.3887 -19.5166c-15.6777 -23.333 -36.1104 -38.3418 -58.5811 -46.3047z" />
    <glyph glyph-name="O" unicode="&#xd5;" horiz-adv-x="671" 
d="M347.305 -272.801c-108.801 -23.4678 -149.178 103.068 -161.2 186.153c-8.85742 61.2344 -6.80859 122.722 0.0810547 183.875c-41.3779 4.20508 -82.4912 26.5576 -109.442 60.9375c-63.1855 80.5938 -72.9385 197.201 -51.3838 294.26
c38.2451 172.202 213.779 341.957 401.39 281.688c84.3467 -27.0967 150.18 -96.6602 184.576 -176.898c42.0518 -98.0996 41.7715 -207.655 27.2686 -311.68c-14.918 -107.021 -47.2979 -211.132 -95.3066 -307.942c-39.5557 -79.7637 -100.633 -189.826 -195.982 -210.394
zM241.731 103.438c-7.80664 -61.6221 -10.8447 -123.81 -1.29102 -184.984c6.35645 -40.6123 16.0928 -93.5117 46.5859 -123.729c36.1533 -35.8359 84.5508 -1.71484 113.216 26.417c60.4844 59.3633 100.692 142.367 131.115 220.438
c31.6309 81.1709 53.0449 166.946 61.2988 253.729c14.1309 148.502 -21.9961 348.199 -190.716 392.963c-160.325 42.5371 -298.627 -110.073 -329.033 -253.324c-15.4512 -72.7871 -9.73633 -157.111 27.0322 -223.035
c17.2627 -30.9512 43.0439 -58.7266 78.1465 -68.3877c4.49121 -1.23438 9.10645 -2.13477 13.7646 -2.75488c4.72852 32.5098 10.4053 64.8896 16.1523 97.043c6.22656 34.8223 59.1846 19.9805 53.001 -14.6094c-4.22168 -23.6084 -8.46973 -47.459 -12.3086 -71.4609
c6.97656 4.46387 13.1982 10.249 18.2285 17.5166c14.0498 20.2822 47.3516 1.26172 33.3887 -19.5166c-15.6777 -23.333 -36.1104 -38.3418 -58.5811 -46.3047z" />
    <glyph glyph-name="O" unicode="&#xd4;" horiz-adv-x="671" 
d="M347.305 -272.801c-108.801 -23.4678 -149.178 103.068 -161.2 186.153c-8.85742 61.2344 -6.80859 122.722 0.0810547 183.875c-41.3779 4.20508 -82.4912 26.5576 -109.442 60.9375c-63.1855 80.5938 -72.9385 197.201 -51.3838 294.26
c38.2451 172.202 213.779 341.957 401.39 281.688c84.3467 -27.0967 150.18 -96.6602 184.576 -176.898c42.0518 -98.0996 41.7715 -207.655 27.2686 -311.68c-14.918 -107.021 -47.2979 -211.132 -95.3066 -307.942c-39.5557 -79.7637 -100.633 -189.826 -195.982 -210.394
zM241.731 103.438c-7.80664 -61.6221 -10.8447 -123.81 -1.29102 -184.984c6.35645 -40.6123 16.0928 -93.5117 46.5859 -123.729c36.1533 -35.8359 84.5508 -1.71484 113.216 26.417c60.4844 59.3633 100.692 142.367 131.115 220.438
c31.6309 81.1709 53.0449 166.946 61.2988 253.729c14.1309 148.502 -21.9961 348.199 -190.716 392.963c-160.325 42.5371 -298.627 -110.073 -329.033 -253.324c-15.4512 -72.7871 -9.73633 -157.111 27.0322 -223.035
c17.2627 -30.9512 43.0439 -58.7266 78.1465 -68.3877c4.49121 -1.23438 9.10645 -2.13477 13.7646 -2.75488c4.72852 32.5098 10.4053 64.8896 16.1523 97.043c6.22656 34.8223 59.1846 19.9805 53.001 -14.6094c-4.22168 -23.6084 -8.46973 -47.459 -12.3086 -71.4609
c6.97656 4.46387 13.1982 10.249 18.2285 17.5166c14.0498 20.2822 47.3516 1.26172 33.3887 -19.5166c-15.6777 -23.333 -36.1104 -38.3418 -58.5811 -46.3047z" />
    <glyph glyph-name="O" unicode="&#xd3;" horiz-adv-x="671" 
d="M347.305 -272.801c-108.801 -23.4678 -149.178 103.068 -161.2 186.153c-8.85742 61.2344 -6.80859 122.722 0.0810547 183.875c-41.3779 4.20508 -82.4912 26.5576 -109.442 60.9375c-63.1855 80.5938 -72.9385 197.201 -51.3838 294.26
c38.2451 172.202 213.779 341.957 401.39 281.688c84.3467 -27.0967 150.18 -96.6602 184.576 -176.898c42.0518 -98.0996 41.7715 -207.655 27.2686 -311.68c-14.918 -107.021 -47.2979 -211.132 -95.3066 -307.942c-39.5557 -79.7637 -100.633 -189.826 -195.982 -210.394
zM241.731 103.438c-7.80664 -61.6221 -10.8447 -123.81 -1.29102 -184.984c6.35645 -40.6123 16.0928 -93.5117 46.5859 -123.729c36.1533 -35.8359 84.5508 -1.71484 113.216 26.417c60.4844 59.3633 100.692 142.367 131.115 220.438
c31.6309 81.1709 53.0449 166.946 61.2988 253.729c14.1309 148.502 -21.9961 348.199 -190.716 392.963c-160.325 42.5371 -298.627 -110.073 -329.033 -253.324c-15.4512 -72.7871 -9.73633 -157.111 27.0322 -223.035
c17.2627 -30.9512 43.0439 -58.7266 78.1465 -68.3877c4.49121 -1.23438 9.10645 -2.13477 13.7646 -2.75488c4.72852 32.5098 10.4053 64.8896 16.1523 97.043c6.22656 34.8223 59.1846 19.9805 53.001 -14.6094c-4.22168 -23.6084 -8.46973 -47.459 -12.3086 -71.4609
c6.97656 4.46387 13.1982 10.249 18.2285 17.5166c14.0498 20.2822 47.3516 1.26172 33.3887 -19.5166c-15.6777 -23.333 -36.1104 -38.3418 -58.5811 -46.3047z" />
    <glyph glyph-name="P" unicode="P" horiz-adv-x="689" 
d="M594.966 633.395c83.7158 -64.415 107.686 -166.143 67.0195 -262.732c-42.2939 -100.444 -125.783 -184.984 -207.816 -254.321c-67.2021 -56.8027 -141.133 -111.298 -224.347 -141.915c0.84082 -11.2246 1.61133 -22.4551 2.58203 -33.6689
c3.30469 -38.1543 7.47168 -76.2383 12.1895 -114.241c2.44727 -19.6992 5.34277 -39.334 8.07617 -58.9961c1.12109 -8.04395 0.889648 -38.0303 6.17871 -50.5107c18.5566 -6.40527 16.6318 -37.8633 -6.17285 -37.7227
c-34.2666 0.21582 -37.2637 43.6582 -42.4287 68.8896c-8.1084 39.6152 -14.2871 79.7266 -19.5654 119.816c-4.01074 30.4717 -7.47168 61.0078 -10.4043 91.5869c-3.3584 -0.792969 -6.69043 -1.67188 -10.0762 -2.37793
c-35.2266 -7.36426 -50.2793 45.5996 -14.9453 54.2207c6.79297 1.66016 13.5156 3.48242 20.1797 5.43945c-2.49609 33.7549 -4.37793 67.5469 -5.59082 101.383c-5.82227 162.638 1.42383 325.647 18.9668 487.401c-17.4834 -7.01367 -34.6172 -14.9121 -51.2705 -23.7646
c-36.0352 -19.1494 -82.7559 -43.3135 -96.2559 -84.7773c-9.29492 -28.5469 -53.7188 -16.6533 -45.2061 12.4648c16.3193 55.8369 68.2744 88.3896 116.769 114.554c54.4414 29.3662 113.643 50.2842 174.553 61.083c102.973 18.2598 221.392 14.502 307.565 -51.8105z
M606.811 376.026c21.252 41.8311 32.5801 89.7891 17.9102 135.593c-12.7939 39.96 -42.8721 73.1104 -78.2764 94.7188c-79.8984 48.7637 -185.356 45.5342 -273.622 25.4893c-9.78516 -2.22168 -19.4893 -4.7666 -29.1396 -7.5
c-14.6807 -150.81 -24.1855 -302.158 -22.4014 -453.739c0.53418 -45.249 2.12988 -90.5088 4.60449 -135.715c74.7393 31.2422 141.354 79.71 203.051 132.76c68.4531 58.8506 136.593 127.12 177.874 208.394z" />
    <glyph glyph-name="Q" unicode="Q" horiz-adv-x="669" 
d="M617.656 -173.693c-92.46 25.4355 -190.8 19.7188 -278.979 -14.0898c-11.8555 -12.2275 -24.2012 -23.9531 -37.2373 -34.8916c-33.6094 -28.1963 -68.1406 -51.4326 -113.595 -44.3701c-20.374 3.16504 -27.8359 34.3154 -12.4551 47.1631
c35.9971 30.0674 75.833 54.6299 118.058 73.3916c-52.9316 -10.3838 -111.637 9.32617 -154.659 46.1973c-73.4346 62.9326 -108.699 160.902 -118.743 254.662c-18.5293 173 48.5596 354.647 171.853 476.722c59.8857 59.2988 136.824 105.874 222.842 109.653
c78.583 3.44531 157.171 -30.498 199.46 -98.3682c45.2705 -72.6631 44.2783 -165.56 31.6309 -247.221c-15.0469 -97.167 -52.4727 -190.679 -96.2871 -278.228c-40.5801 -81.0957 -89.9854 -157.452 -145.92 -228.768c75.1328 14.5674 153.564 12.292 228.745 -8.48633
c34.3428 -9.48828 19.6787 -62.8291 -14.7119 -53.3672zM157.789 -52.1006c47.6318 -49.1309 132.99 -80.9307 186.057 -20.9902c7.05176 7.96875 15.9092 7.61328 22.5996 3.1875c8.72266 11.1494 17.3213 22.3906 25.6611 33.7822
c51.918 70.9062 96.7031 146.977 133.946 226.567c35.5498 75.9629 65.2344 157.021 75.2891 240.726c8.10352 67.4551 6.48047 147.165 -38.7842 202.317c-44.8711 54.6729 -123.519 68.4258 -189.33 51.001c-71.7412 -18.9932 -131.066 -68.5332 -178.057 -124.29
c-93.3281 -110.747 -141.041 -261.627 -125.573 -405.832c8.00098 -74.6152 35.1787 -151.78 88.1914 -206.469z" />
    <glyph glyph-name="R" unicode="R" horiz-adv-x="762" 
d="M876.148 -143.658c29.9541 -18.7617 2.22461 -66.4209 -27.7451 -47.4492c-122.996 77.8232 -251.934 146.395 -386.796 201.348c-42.4023 17.2793 -86.1904 33.4365 -131.11 43.7607c-19.7324 -9.56445 -39.9229 -18.2441 -60.5391 -26.002
c10.2061 -93.4092 21.4365 -186.742 33.4971 -280.07c3.93066 -30.418 -48.623 -37.125 -53.3623 -7.22461c-14.1572 89.3604 -25.8994 179.211 -35.4473 269.348c-32.0352 -8.72852 -64.7275 -14.8965 -97.8301 -18.3896
c-30.9238 -3.26758 -101.026 -16.0771 -107.981 29.3926c-6.79297 44.4619 72.8633 65.2773 103.729 74.8574c29.8242 9.26172 60.8779 15.0254 92.1523 17.3271c-14.7129 168.622 -21.9639 337.983 -22.8047 506.784c-0.128906 25.7109 38.3916 25.3447 39.6748 0
c8.55566 -169.415 22.1523 -338.124 39.3506 -506.531c2.59277 -0.162109 5.19629 -0.243164 7.78418 -0.458984c15.7803 -1.32129 31.4307 -3.49414 46.9844 -6.23828c32.2939 16.6162 63.4609 35.4912 93.3174 55.9561c95.9756 65.7783 184.834 151.44 245.701 251.162
c29.7168 48.6826 53.4004 104.52 50.9746 162.6c-2.22168 53.1416 -31.793 99.3174 -74.751 129.454c-96.6279 67.8008 -234.795 51.0342 -339.536 12.6162c-54.4297 -19.9639 -106.844 -49.6484 -151.106 -87.1982c-22.9131 -19.4355 -44.457 -41.1025 -60.458 -66.6895
c-9.19238 -14.707 -32.7842 -51.2705 -16.2119 -67.4873c23.3008 -22.7998 -12.416 -58.4414 -35.7383 -35.7393c-38.0996 37.0869 -14.0332 94.7734 10.4482 132.534c28.9561 44.6611 70.0156 80.1035 113.728 109.81c92.9727 63.1807 207.225 99.3398 319.869 98.1055
c95.6729 -1.04004 193.082 -34.5195 249.286 -115.911c56.2412 -81.4561 38.5146 -183.896 -3.24023 -267.287c-45.9932 -91.8613 -119.276 -171.593 -196.841 -237.846c-40.165 -34.3096 -82.8311 -65.7031 -127.988 -92.8535
c63.1797 -19.1768 124.462 -46.2246 184.003 -72.874c103.124 -46.165 203.224 -98.8105 298.988 -158.805zM145.355 46.4268c21.6191 4.21094 42.9512 9.79883 63.9609 16.3926c-0.0537109 0.566406 -0.113281 1.12695 -0.166992 1.69336
c-20.5195 -1.41211 -40.9092 -4.46875 -60.9863 -9.40137c-16.5723 -4.06543 -32.9238 -9.1543 -48.8115 -15.3916c15.4463 1.46094 30.7793 3.74707 46.0039 6.70703z" />
    <glyph glyph-name="S" unicode="S" horiz-adv-x="681" 
d="M713.415 -96.9756c-1.19727 -77.9736 -64.2441 -137.718 -129.791 -170.346c-66.7383 -33.2158 -149.219 -39.7012 -211.666 6.76074c-56.2627 41.8574 -73.5527 118.548 -34.752 178.121c13.6611 20.9775 47.2646 1.59082 33.7109 -19.7051
c-25.3926 -39.8955 -10.4805 -93.5059 26.1582 -121.142c36.2188 -27.3174 84.002 -30.3145 126.415 -17.9521c76.3994 22.2656 194.894 121.546 112.057 202.469c-57.0391 55.7236 -140.15 86.1299 -214.06 111.518c-75.4668 25.9209 -152.503 47.4531 -226.19 78.3398
c-64.7275 27.1289 -133.531 65.0566 -167.011 129.94c-36.5469 70.8252 -19.5645 151.451 18.0234 218.076c74.1514 131.434 230.725 251.805 386.483 251.562c70.5986 -0.107422 142.928 -28.9668 186.586 -85.8447c47.3193 -61.6436 51.7188 -142.917 44.7588 -217.387
c-2.95996 -31.6523 -51.7451 -32.623 -50.165 -0.000976562c4.3291 89.3604 -3.4502 187.632 -94.3467 231.091c-88.1738 42.1543 -189.185 6.78223 -266.107 -42.7744c-116.672 -75.1592 -280.943 -268.328 -122.817 -385.588
c62.792 -46.5645 142.259 -69.4453 215.617 -93.3447c76.2002 -24.8271 153.139 -49.1582 224.223 -86.8105c64.7168 -34.2832 144.146 -84.3623 142.874 -166.983z" />
    <glyph glyph-name="T" unicode="T" horiz-adv-x="473" 
d="M1171.91 799.311c31.8135 -12.874 19.1582 -64.501 -14.5098 -52.6455c-93.3555 32.876 -189.676 34.7578 -287.23 23.7432c-145.505 -16.4268 -290.114 -52.6396 -427.693 -104.034c-9.67188 -136.501 -17.0361 -272.943 -17.0303 -409.962
c0.00585938 -79.8174 2.78223 -159.846 12.1465 -239.156c8.32422 -70.5234 17.667 -147.57 61.3096 -206.001c17.5 -23.4307 -22.6592 -53.9609 -40.3857 -31.1611c-47.1357 60.6406 -61.5576 134.786 -72.0869 209.25c-11.543 81.6133 -16.1367 163.824 -16.8857 246.203
c-1.23438 134.992 0.334961 272.787 14.6543 407.979c-4.80859 -1.97852 -9.63965 -3.9082 -14.4268 -5.9248c-75.8662 -31.8789 -151.538 -67.4824 -219.684 -113.966c-32.9512 -22.4766 -74.9004 -50.5059 -95.9043 -85.3389
c-24.0508 -39.8848 10.3613 -69.165 41.6357 -90.2021c20.7295 -13.9414 1.36914 -47.6094 -19.7051 -33.7109c-33.7168 22.2393 -71.4443 48.9258 -75.7246 92.5469c-4.91113 50.042 37.5186 89.2578 72.0977 118.829c70.6201 60.3984 153.656 104.574 237.835 142.9
c26.7568 12.1846 53.8262 23.7061 81.1221 34.6885c1.91895 14.0605 3.93555 28.0938 6.17871 42.0732c4.57715 28.5303 52.2842 21.5381 50.1387 -6.78223c-0.355469 -4.6582 -0.68457 -9.31641 -1.03516 -13.9746c48.3057 17.7207 97.3232 33.5059 146.923 47.1025
c95.1934 26.0986 192.77 45.3398 290.987 55.5244c95.7002 9.92578 196.867 8.61035 287.273 -27.9805z" />
    <glyph glyph-name="U" unicode="U" horiz-adv-x="637" 
d="M548.226 171.617c16.1953 -105.593 44.1816 -209.182 82.9072 -309.249c13.4297 -34.7031 -42.5049 -49.7285 -55.6807 -15.3486c-27.3496 71.3584 -48.7422 145.02 -64.3018 219.92c-25.1074 -65.3262 -54.4521 -129.692 -94.6543 -186.613
c-44.9092 -63.5898 -109.75 -129.477 -194.608 -99.2588c-82.3193 29.3125 -116.942 117.405 -139.839 194.549c-27.5273 92.7568 -37.7979 190.042 -45.1621 286.185c-7.81738 101.976 -10.9385 204.83 -4.16699 306.93c1.63379 24.6592 37.5615 24.9287 38.5371 0
c7.38086 -188.921 6.125 -386.289 58.9326 -569.43c18.0557 -62.6143 46.5859 -156.864 121.428 -171.372c74 -14.3457 129.826 87.1875 159.268 140.378c32.8916 59.4277 61.1689 123.163 84.3994 188.915c-15.4248 108.478 -18.5459 218.707 -8.86328 327.729
c3.99512 45.0166 8.54004 91.2734 24.9404 133.735c11.0791 28.6924 37.5557 70.458 73.165 44.7529c32.3047 -23.3223 29.8838 -78.0166 29.7539 -112.968c-0.172852 -47.1953 -3.89844 -94.2451 -10.3301 -140.981c-11.1172 -80.793 -30.623 -160.287 -55.7246 -237.873z
M532.575 340.67c0.500977 -16.3516 1.38086 -32.667 2.44824 -48.9434c10.0381 41.6641 18.1035 83.5059 23.9531 125.013c6.2373 44.2568 9.56934 89.0361 9.62305 133.735c0.0273438 19.6777 0.921875 40.6982 -4.39941 59.8213
c-5.19141 18.6484 -2.59863 9.26758 -7.72559 -4.04297c-3.41309 -8.86328 -6.07129 -18.0498 -8.40039 -27.2471c-19.2197 -75.9521 -17.8984 -160.535 -15.499 -238.336z" />
    <glyph glyph-name="U" unicode="&#xdc;" horiz-adv-x="637" 
d="M548.226 171.617c16.1953 -105.593 44.1816 -209.182 82.9072 -309.249c13.4297 -34.7031 -42.5049 -49.7285 -55.6807 -15.3486c-27.3496 71.3584 -48.7422 145.02 -64.3018 219.92c-25.1074 -65.3262 -54.4521 -129.692 -94.6543 -186.613
c-44.9092 -63.5898 -109.75 -129.477 -194.608 -99.2588c-82.3193 29.3125 -116.942 117.405 -139.839 194.549c-27.5273 92.7568 -37.7979 190.042 -45.1621 286.185c-7.81738 101.976 -10.9385 204.83 -4.16699 306.93c1.63379 24.6592 37.5615 24.9287 38.5371 0
c7.38086 -188.921 6.125 -386.289 58.9326 -569.43c18.0557 -62.6143 46.5859 -156.864 121.428 -171.372c74 -14.3457 129.826 87.1875 159.268 140.378c32.8916 59.4277 61.1689 123.163 84.3994 188.915c-15.4248 108.478 -18.5459 218.707 -8.86328 327.729
c3.99512 45.0166 8.54004 91.2734 24.9404 133.735c11.0791 28.6924 37.5557 70.458 73.165 44.7529c32.3047 -23.3223 29.8838 -78.0166 29.7539 -112.968c-0.172852 -47.1953 -3.89844 -94.2451 -10.3301 -140.981c-11.1172 -80.793 -30.623 -160.287 -55.7246 -237.873z
M532.575 340.67c0.500977 -16.3516 1.38086 -32.667 2.44824 -48.9434c10.0381 41.6641 18.1035 83.5059 23.9531 125.013c6.2373 44.2568 9.56934 89.0361 9.62305 133.735c0.0273438 19.6777 0.921875 40.6982 -4.39941 59.8213
c-5.19141 18.6484 -2.59863 9.26758 -7.72559 -4.04297c-3.41309 -8.86328 -6.07129 -18.0498 -8.40039 -27.2471c-19.2197 -75.9521 -17.8984 -160.535 -15.499 -238.336z" />
    <glyph glyph-name="U" unicode="&#xdb;" horiz-adv-x="637" 
d="M548.226 171.617c16.1953 -105.593 44.1816 -209.182 82.9072 -309.249c13.4297 -34.7031 -42.5049 -49.7285 -55.6807 -15.3486c-27.3496 71.3584 -48.7422 145.02 -64.3018 219.92c-25.1074 -65.3262 -54.4521 -129.692 -94.6543 -186.613
c-44.9092 -63.5898 -109.75 -129.477 -194.608 -99.2588c-82.3193 29.3125 -116.942 117.405 -139.839 194.549c-27.5273 92.7568 -37.7979 190.042 -45.1621 286.185c-7.81738 101.976 -10.9385 204.83 -4.16699 306.93c1.63379 24.6592 37.5615 24.9287 38.5371 0
c7.38086 -188.921 6.125 -386.289 58.9326 -569.43c18.0557 -62.6143 46.5859 -156.864 121.428 -171.372c74 -14.3457 129.826 87.1875 159.268 140.378c32.8916 59.4277 61.1689 123.163 84.3994 188.915c-15.4248 108.478 -18.5459 218.707 -8.86328 327.729
c3.99512 45.0166 8.54004 91.2734 24.9404 133.735c11.0791 28.6924 37.5557 70.458 73.165 44.7529c32.3047 -23.3223 29.8838 -78.0166 29.7539 -112.968c-0.172852 -47.1953 -3.89844 -94.2451 -10.3301 -140.981c-11.1172 -80.793 -30.623 -160.287 -55.7246 -237.873z
M532.575 340.67c0.500977 -16.3516 1.38086 -32.667 2.44824 -48.9434c10.0381 41.6641 18.1035 83.5059 23.9531 125.013c6.2373 44.2568 9.56934 89.0361 9.62305 133.735c0.0273438 19.6777 0.921875 40.6982 -4.39941 59.8213
c-5.19141 18.6484 -2.59863 9.26758 -7.72559 -4.04297c-3.41309 -8.86328 -6.07129 -18.0498 -8.40039 -27.2471c-19.2197 -75.9521 -17.8984 -160.535 -15.499 -238.336z" />
    <glyph glyph-name="U" unicode="&#xda;" horiz-adv-x="637" 
d="M548.226 171.617c16.1953 -105.593 44.1816 -209.182 82.9072 -309.249c13.4297 -34.7031 -42.5049 -49.7285 -55.6807 -15.3486c-27.3496 71.3584 -48.7422 145.02 -64.3018 219.92c-25.1074 -65.3262 -54.4521 -129.692 -94.6543 -186.613
c-44.9092 -63.5898 -109.75 -129.477 -194.608 -99.2588c-82.3193 29.3125 -116.942 117.405 -139.839 194.549c-27.5273 92.7568 -37.7979 190.042 -45.1621 286.185c-7.81738 101.976 -10.9385 204.83 -4.16699 306.93c1.63379 24.6592 37.5615 24.9287 38.5371 0
c7.38086 -188.921 6.125 -386.289 58.9326 -569.43c18.0557 -62.6143 46.5859 -156.864 121.428 -171.372c74 -14.3457 129.826 87.1875 159.268 140.378c32.8916 59.4277 61.1689 123.163 84.3994 188.915c-15.4248 108.478 -18.5459 218.707 -8.86328 327.729
c3.99512 45.0166 8.54004 91.2734 24.9404 133.735c11.0791 28.6924 37.5557 70.458 73.165 44.7529c32.3047 -23.3223 29.8838 -78.0166 29.7539 -112.968c-0.172852 -47.1953 -3.89844 -94.2451 -10.3301 -140.981c-11.1172 -80.793 -30.623 -160.287 -55.7246 -237.873z
M532.575 340.67c0.500977 -16.3516 1.38086 -32.667 2.44824 -48.9434c10.0381 41.6641 18.1035 83.5059 23.9531 125.013c6.2373 44.2568 9.56934 89.0361 9.62305 133.735c0.0273438 19.6777 0.921875 40.6982 -4.39941 59.8213
c-5.19141 18.6484 -2.59863 9.26758 -7.72559 -4.04297c-3.41309 -8.86328 -6.07129 -18.0498 -8.40039 -27.2471c-19.2197 -75.9521 -17.8984 -160.535 -15.499 -238.336z" />
    <glyph glyph-name="V" unicode="V" horiz-adv-x="796" 
d="M707.658 770.43c38.3428 -25.8076 54.3789 -74.5078 62.0127 -117.778c9.90918 -56.0908 8.26465 -112.904 3.54199 -169.426c-9.30566 -111.329 -29.792 -222.044 -64.2422 -328.397c-32.6387 -100.757 -75.7363 -201.099 -142.68 -284.075
c-57.1475 -70.8252 -148.535 -147.349 -244.796 -106.187c-98.2451 42.0137 -134.96 167.436 -161.398 261.416c-29.3447 104.305 -44.3701 211.963 -63.1963 318.478c-9.69336 54.8398 -20.4541 109.615 -34.6924 163.474
c-12.8955 48.7852 -24.4707 110.606 -63.1367 146.032c-18.2979 16.7666 8.8584 43.6582 27.1621 27.1611c35.96 -32.4121 51.9609 -80.4971 67.2178 -125.088c16.9824 -49.6211 29.8945 -100.542 40.9521 -151.775c22.8428 -105.847 38.127 -213.225 64.3447 -318.354
c11.4893 -46.0576 25.1455 -91.6621 42.5166 -135.865c17.3057 -44.0361 38.418 -92.7354 77.4346 -121.945c84.1094 -62.9697 175.594 29.9111 223.646 95.0645c0.264648 0.355469 0.512695 0.727539 0.777344 1.08301c-1.06738 1.4502 -2.03809 3.09961 -2.89551 4.9707
c-50.457 110.343 -75.7363 229.393 -78.3838 350.594c-2.57715 117.842 11.7529 245.064 53.8857 355.812c26.1641 68.7705 102.256 195.163 191.929 134.808zM722.309 473.312c4.48047 49.1572 7.60254 99.1621 1.87207 148.368
c-4.0166 34.5039 -13.8936 100.585 -54.5166 112.667c-43.0654 12.8047 -80.2705 -54.3438 -95.0752 -84.9502c-19.9746 -41.292 -30.8486 -86.9346 -40.1221 -131.639c-37.3398 -180.03 -29.334 -372.245 41.9492 -542.933c37.582 63.3477 64.9912 133.073 87.0742 202.868
c30.3691 95.9805 49.6855 195.4 58.8184 295.618z" />
    <glyph glyph-name="W" unicode="W" horiz-adv-x="936" 
d="M800.396 750.094c31.5225 -11.4893 51.0869 -41.8252 65.1152 -70.6572c73.418 -150.837 47.4434 -339.617 11.2197 -496.805c-33.4688 -145.235 -78.6201 -299.269 -184.623 -409.337c-50.1064 -52.0312 -125.859 -93.5977 -192.345 -43.4424
c-60.4355 45.5889 -89.0957 133.887 -108.488 203.773c-1.55762 5.62305 -2.97559 11.2998 -4.45801 16.9502c-19.9316 -41.5938 -44.8447 -81.0195 -79.2412 -108.628c-59.46 -47.7285 -125.573 -8.80371 -161.468 46.834
c-43.2324 67.0137 -62.4365 150.244 -77.3809 227.474c-17.123 88.4863 -28.0137 178.305 -34.6016 268.166c-3.34277 45.5996 -5.58008 91.2793 -7.20801 136.971c-1.55273 43.54 -2.39355 86.832 8.28613 129.396c7.12695 28.4121 49.707 16.2705 43.6201 -12.0225
c-9.01953 -41.9229 -4.70605 -85.4463 -2.58203 -127.913c2.1084 -42.1865 4.83594 -84.335 8.3457 -126.425c6.9707 -83.5811 17.0957 -166.838 33.2637 -249.168c14.2334 -72.4805 31.3018 -149.021 69.5586 -213.145c14.3516 -24.0615 42.375 -60.5176 74.8623 -48.6514
c31.3662 11.4561 54.543 53.4375 70.0371 80.4961c13.3271 23.2793 25.6357 47.5557 36.9355 72.5332c-11.1758 55.5889 -19.1924 111.965 -24.9014 168.013c-8.60449 84.4482 -18.6807 176.903 1.7627 260.371c7.11621 29.0586 18.335 63.5518 46.5742 78.7656
c26.293 14.168 54.7588 -0.0273438 70.7598 -22.4492c44.4131 -62.2314 32.1484 -156.396 22.6543 -227.021c-11.2139 -83.4189 -33.0645 -165.608 -62.5654 -244.401c1.02441 -4.73926 2.01074 -9.4834 3.07324 -14.2119
c15.1553 -67.6553 33.3291 -136.076 67.4502 -196.938c13.4678 -24.0234 31.2324 -53.541 59.4717 -61.8057c31.6465 -9.26758 64.3555 14.2598 86.6484 34.0889c45.3945 40.375 78.8584 91.8398 105.211 146.162c7.05176 14.5352 13.5107 29.3291 19.5332 44.3057
c-18.6318 28.0234 -34.8867 57.5029 -49.3838 87.8662c-65.6064 137.396 -101.345 297.431 -86.3838 450.03c6.65234 67.876 23.2471 159.128 80.7715 203.649c25.4248 19.6777 59.5518 28.4492 90.4756 17.1758zM390.774 246.842
c4.14062 -40.8281 9.66309 -81.5381 16.4619 -122.037c24.3467 74.96 39.8516 153.171 45.3232 228.935c2.38281 33.0596 3.09961 66.874 -5.50977 99.1572c-3.86035 14.4648 -9.80176 39.583 -26.2021 44.5049c-11.2783 3.38574 -13.5859 0.463867 -19.8232 -10.0225
c-4.24316 -7.13281 -6.26465 -16.8154 -8.24316 -24.751c-17.3926 -69.79 -9.17676 -145.128 -2.00684 -215.786zM851.255 330.292c9.10059 70.7061 11.5928 143.608 1.16602 214.325c-4.77637 32.3906 -12.373 64.8779 -24.8535 95.209
c-9.67773 23.5117 -25.5605 63.4609 -55.9189 64.6846c-63.6709 2.56641 -83.8555 -108.553 -90.708 -153.764c-10.249 -67.6445 -5.21387 -137.542 4.53906 -204.922c14.9072 -102.957 48.1064 -204.421 101.086 -294.363c7.40234 22.8154 14.1035 45.8633 20.4004 68.9541
c18.7939 68.916 35.1621 138.959 44.2891 209.876z" />
    <glyph glyph-name="X" unicode="X" horiz-adv-x="699" 
d="M848.216 -206.057c29.7324 -18.4648 2.54102 -65.333 -27.4883 -47.0352c-170.741 104.11 -273.957 289.397 -362.729 463.492c-30.9463 -68.8408 -60.3984 -138.377 -89.2637 -208.005c-20.3193 -48.9902 -39.458 -98.7139 -62.8398 -146.362
c-20.4922 -41.7549 -46.1113 -92.0713 -84.4541 -120.3c-92.8486 -68.3506 -150.212 83.9951 -167.313 149.72c-28.9775 111.362 -39.5771 228.487 -31.5068 343.24c7.29395 103.685 26.9883 211.51 82.8037 300.973c22.2119 35.6035 53.5078 72.5713 96.6865 81.4668
c44.3975 9.14355 83.8564 -15.2568 113.53 -46.1543c63.9834 -66.6357 101.717 -156.313 142.098 -239.636c61.2227 127.212 129.751 250.731 212.798 365.333c16.5723 22.8701 54.8828 1.24023 38.4072 -22.4492c-87.2363 -125.433 -159.026 -259.831 -223.479 -397.88
c90.5244 -175.949 190.414 -369.371 362.751 -476.403zM271.072 -101.808c41.5615 89.0635 76.2588 181.481 115.566 271.569c14.1357 32.4014 28.5791 64.6895 43.3887 96.8057c-36.7305 76.8096 -69.9941 157.527 -117.912 227.344
c-21.7051 31.6309 -60.0098 83.1445 -104.795 69.7793c-42.2402 -12.6045 -68.3125 -65.9346 -85.2676 -102.682c-41.8955 -90.7998 -53.832 -195.277 -54.9805 -294.271c-1.17578 -101.712 10.9434 -206.69 42.7568 -303.636
c9.99512 -30.4502 44.1006 -123.644 87.5381 -82.8213c32.9141 30.9346 54.873 77.5586 73.7051 117.912z" />
    <glyph glyph-name="Y" unicode="Y" horiz-adv-x="675" 
d="M627.337 567.82c5.82812 -39.793 9.61133 -79.8711 11.7998 -120.009c4.59863 -83.9902 2.36133 -168.229 -1.70898 -252.192c-8.45312 -174.272 -25.3975 -348.599 -46.7256 -521.744c-4.39941 -35.7441 -60.7324 -36.7305 -56.9854 0
c20.2549 198.527 45.96 396.3 54.3379 595.873c3.51465 83.6719 3.91406 167.673 -4.11328 251.113c-0.835938 8.69043 -13.5645 112.785 -23.2686 121.357c1.60156 -3.56348 -7.58496 -20.5459 -7.07812 -19.5322c-4.05957 -8.14648 -7.89844 -16.4062 -11.7158 -24.666
c-8.09277 -17.5166 -15.7969 -35.2051 -23.1826 -53.0283c-56.457 -136.205 -95.9912 -280.114 -171.075 -408.027c-31.0586 -52.9102 -73.8652 -127.838 -144.62 -126.097c-68.8086 1.6875 -112.612 70.2969 -133.412 127.719
c-27.2041 75.1006 -37.334 159.247 -42.4121 238.568c-5.41797 84.6807 -0.582031 169.253 12.9502 252.969c4.58301 28.3369 46.7588 15.959 42.7695 -11.79c-13.9199 -96.7842 -15.5322 -195.477 -3.95703 -292.595c5.31543 -44.5537 13.375 -89.0967 24.7021 -132.528
c10.373 -39.7715 24.7139 -81.9902 55.6055 -110.774c70.3828 -65.585 125.708 40.9297 156.023 94.3623c37.8789 66.749 66.7383 137.973 93.9424 209.585c25.5869 67.3418 49.9873 135.175 78.3184 201.438c14.5781 34.0996 56.7324 147.058 108.672 83.5596
c21.791 -26.6387 26.3301 -70.7607 31.1338 -103.562z" />
    <glyph glyph-name="Y" unicode="&#x178;" horiz-adv-x="675" 
d="M627.337 567.82c5.82812 -39.793 9.61133 -79.8711 11.7998 -120.009c4.59863 -83.9902 2.36133 -168.229 -1.70898 -252.192c-8.45312 -174.272 -25.3975 -348.599 -46.7256 -521.744c-4.39941 -35.7441 -60.7324 -36.7305 -56.9854 0
c20.2549 198.527 45.96 396.3 54.3379 595.873c3.51465 83.6719 3.91406 167.673 -4.11328 251.113c-0.835938 8.69043 -13.5645 112.785 -23.2686 121.357c1.60156 -3.56348 -7.58496 -20.5459 -7.07812 -19.5322c-4.05957 -8.14648 -7.89844 -16.4062 -11.7158 -24.666
c-8.09277 -17.5166 -15.7969 -35.2051 -23.1826 -53.0283c-56.457 -136.205 -95.9912 -280.114 -171.075 -408.027c-31.0586 -52.9102 -73.8652 -127.838 -144.62 -126.097c-68.8086 1.6875 -112.612 70.2969 -133.412 127.719
c-27.2041 75.1006 -37.334 159.247 -42.4121 238.568c-5.41797 84.6807 -0.582031 169.253 12.9502 252.969c4.58301 28.3369 46.7588 15.959 42.7695 -11.79c-13.9199 -96.7842 -15.5322 -195.477 -3.95703 -292.595c5.31543 -44.5537 13.375 -89.0967 24.7021 -132.528
c10.373 -39.7715 24.7139 -81.9902 55.6055 -110.774c70.3828 -65.585 125.708 40.9297 156.023 94.3623c37.8789 66.749 66.7383 137.973 93.9424 209.585c25.5869 67.3418 49.9873 135.175 78.3184 201.438c14.5781 34.0996 56.7324 147.058 108.672 83.5596
c21.791 -26.6387 26.3301 -70.7607 31.1338 -103.562z" />
    <glyph glyph-name="Y" unicode="&#xdd;" horiz-adv-x="675" 
d="M627.337 567.82c5.82812 -39.793 9.61133 -79.8711 11.7998 -120.009c4.59863 -83.9902 2.36133 -168.229 -1.70898 -252.192c-8.45312 -174.272 -25.3975 -348.599 -46.7256 -521.744c-4.39941 -35.7441 -60.7324 -36.7305 -56.9854 0
c20.2549 198.527 45.96 396.3 54.3379 595.873c3.51465 83.6719 3.91406 167.673 -4.11328 251.113c-0.835938 8.69043 -13.5645 112.785 -23.2686 121.357c1.60156 -3.56348 -7.58496 -20.5459 -7.07812 -19.5322c-4.05957 -8.14648 -7.89844 -16.4062 -11.7158 -24.666
c-8.09277 -17.5166 -15.7969 -35.2051 -23.1826 -53.0283c-56.457 -136.205 -95.9912 -280.114 -171.075 -408.027c-31.0586 -52.9102 -73.8652 -127.838 -144.62 -126.097c-68.8086 1.6875 -112.612 70.2969 -133.412 127.719
c-27.2041 75.1006 -37.334 159.247 -42.4121 238.568c-5.41797 84.6807 -0.582031 169.253 12.9502 252.969c4.58301 28.3369 46.7588 15.959 42.7695 -11.79c-13.9199 -96.7842 -15.5322 -195.477 -3.95703 -292.595c5.31543 -44.5537 13.375 -89.0967 24.7021 -132.528
c10.373 -39.7715 24.7139 -81.9902 55.6055 -110.774c70.3828 -65.585 125.708 40.9297 156.023 94.3623c37.8789 66.749 66.7383 137.973 93.9424 209.585c25.5869 67.3418 49.9873 135.175 78.3184 201.438c14.5781 34.0996 56.7324 147.058 108.672 83.5596
c21.791 -26.6387 26.3301 -70.7607 31.1338 -103.562z" />
    <glyph glyph-name="Z" unicode="Z" horiz-adv-x="592" 
d="M692.678 -83.2871c31.792 12.9717 45.0098 -38.1943 14.1016 -51.1768c-70.3887 -29.5605 -140.847 -59.1689 -213.451 -82.9443c-69.0508 -22.6055 -147.003 -47.6582 -220.416 -46.8115c-58.0098 0.668945 -116.306 31.5605 -124.78 93.5488
c-8.16797 59.7354 22.0498 123.298 50.1758 174.159c61.6436 111.453 148.352 206.226 226.331 306.088c38.1104 48.8125 81.2725 100.973 106.504 157.979c34.4609 77.8555 -42.418 116.667 -106.558 132.819c-128.322 32.3203 -264.473 -1.48242 -391.582 -26.0771
c-0.625 -0.177734 -1.19141 -0.40918 -1.86523 -0.527344c-4.46973 -0.797852 -8.93359 -1.59082 -13.4033 -2.38867c-25.9805 -4.63672 -36.7471 31.7754 -11.0088 39.9268c73.5098 23.29 153.053 34.374 229.63 41.7383c69.4775 6.68555 141.343 7.5 209.116 -11.4775
c52.0957 -14.5889 111.729 -41.5186 134.415 -94.2832c24.4443 -56.8457 -8.59863 -115.201 -38.6113 -162.628c-68.5117 -108.268 -156.47 -202.167 -230.653 -306.315c-36.1973 -50.8232 -72.8848 -105.021 -94.2451 -164.04
c-10.7344 -29.6523 -27.1885 -75.9736 -2.44824 -102.763c21.8457 -23.6465 59.7031 -22.4062 88.8701 -18.8047c135.153 16.7021 264.872 72.9814 389.879 123.978z" />
    <glyph glyph-name="bracketleft" unicode="[" horiz-adv-x="317" 
d="M233.663 -108.057c34.1484 11.0146 47.5 -41.1729 14.6455 -53.125c-40.3535 -14.6807 -78.1035 -41.1953 -123.18 -29.3936c-42.958 11.252 -57.8916 51.5781 -64.8838 91.2197c-17.8936 101.437 -8.22656 209.493 -1.84375 311.646
c6.8418 109.475 17.3115 218.647 31.1514 327.459c5.0459 39.6689 4.41504 92.293 30.9238 124.953c24.4229 30.0889 69.2939 38.2568 100.692 14.4434c16.4922 -12.5078 7.79102 -43.1191 -15.1377 -35.916c-45.3301 14.2383 -54.3066 -26.2666 -58.7764 -61.374
c-5.34766 -42.0518 -9.7627 -84.2441 -13.9082 -126.431c-8.11914 -82.6533 -14.5566 -165.506 -19.1338 -248.429c-4.44238 -80.4219 -8.04883 -161.242 -3.09961 -241.729c1.54199 -25.166 0.0166016 -90.6641 29.3184 -100.325
c28.8594 -9.50977 66.7656 18.4658 93.2314 27z" />
    <glyph glyph-name="backslash" unicode="\" horiz-adv-x="348" 
d="M296.368 -152.329c11.2783 -36.1104 -45.0439 -51.2822 -56.4141 -15.5547c-40.0625 125.864 -73.8604 253.637 -102.444 382.585c-28.2344 127.353 -47.5996 257.002 -86.2607 381.826c-9.50977 30.7031 38.1113 43.4531 47.8857 13.2031
c40.1436 -124.241 61.2666 -253.588 91.377 -380.412c30.5088 -128.501 66.4736 -255.605 105.856 -381.647z" />
    <glyph glyph-name="bracketright" unicode="]" horiz-adv-x="331" 
d="M259.798 533.811c21.2305 -101.394 23.1719 -205.661 18.9287 -308.774c-2.13477 -51.9336 -5.24023 -103.911 -10.2324 -155.651c-4.87891 -50.5645 -9.25684 -103.803 -24.5576 -152.491c-11.9795 -38.1221 -32.9785 -75.0684 -68.7119 -95.3721
c-34.6445 -19.6836 -79.1279 -23.0527 -112.56 0.754883c-29.2422 20.8262 -2.85742 68.5869 28.6387 48.9893c29.4043 -18.2979 62.9971 -0.981445 80.4912 25.5762c18.5566 28.1689 24.04 63.5625 29.415 96.2178c13.6777 83.1279 18.7129 168.116 21.9688 252.226
c3.14844 81.4189 2.81445 163.98 -9.375 244.715c-5.66602 37.5391 -11.8066 77.6611 -25.376 113.309c-7.26172 19.0693 -15.5693 31.1191 -36.9561 32.7148c-16.7988 1.25098 -33.7539 -3.24512 -50.7314 -2.15625c-29.4902 1.88184 -29.9219 47.2598 0 46.2461
c43.3291 -1.47168 83.1377 13.5215 115.308 -25.1289c26.6543 -32.0186 35.4531 -81.5586 43.75 -121.174z" />
    <glyph glyph-name="asciicircum" unicode="^" horiz-adv-x="295" 
d="M243.317 340.69c12.7715 -32.2344 -38.8516 -45.6299 -51.667 -14.2422c-8.69043 21.2959 -14.1953 43.1787 -18.5518 65.709c-1.86523 9.65039 -3.45605 19.3496 -5.17578 29.0215c-0.803711 4.67969 -1.65039 9.35352 -2.52344 14.0225
c-12.9395 -10.168 -24.7354 -22.0068 -35.3398 -34.4551c-4.0166 -4.71777 -32.0566 -36.1865 -30.4551 -43.0391c7.25684 -31.0107 -36.5957 -42.3486 -47.1514 -12.999c-10.5557 29.3389 15.2959 60.3975 32.3379 82.248c18.1475 23.2637 43.0391 53.3574 71.543 64.043
c30.0459 11.2676 51.5898 -8.64258 59.0625 -36.4619c10.2539 -38.1592 13.1973 -76.6797 27.9209 -113.847z" />
    <glyph glyph-name="underscore" unicode="_" horiz-adv-x="438" 
d="M363.328 20.3691c33.4531 -2.18359 33.6631 -54.3438 0 -52.3115c-96.7031 5.83301 -193.374 3.43945 -289.688 -7.00879c-32.083 -3.47754 -30.9512 45.54 0 49.6592c96.1152 12.7881 192.932 15.9639 289.688 9.66113z" />
    <glyph glyph-name="grave" unicode="`" horiz-adv-x="173" 
d="M121.344 406.938c10.8311 -30.7627 -37.7451 -43.6729 -48.6143 -13.4014c-14.0176 39.0322 -23.6621 81.833 -22.6592 123.513c0.765625 31.8193 44.8662 30.1699 48.2686 0c4.28613 -38.0088 10.249 -73.8818 23.0049 -110.111z" />
    <glyph glyph-name="a" unicode="a" horiz-adv-x="264" 
d="M208.592 252.495c15.3809 3.06738 35.668 -7.24805 33.8457 -25.7832c-6.13477 -62.1992 -7.13184 -124.388 -5.87598 -186.829c0.716797 -35.7168 -54.29 -35.5117 -55.3467 0.000976562c-1.02441 34.4287 -0.361328 68.8301 1.41797 103.188
c-1.16992 -1.53613 -2.31836 -3.08887 -3.49902 -4.62012c-16.5615 -21.4893 -33.3984 -43.0811 -52.5049 -62.3926c-27.7598 -28.0557 -86.7188 -68.7598 -108.963 -11.418c-17.7266 45.6963 18.7617 101.312 47.2764 134.652
c28.1045 32.8652 74.9648 54.3008 115.938 34.7197c7.6875 9.08398 16.5996 16.2656 27.7109 18.4814zM152.221 191.237c0.0810547 0.118164 0.166016 0.248047 0.251953 0.361328c-25.7432 -2.54492 -44.9688 -22.04 -59.6113 -44.5967
c-9.54297 -14.7021 -20.7617 -31.9111 -24.0068 -49.4814c3.6123 4.86328 12.0391 9.48926 16.3789 13.6836c24.9404 24.0879 46.6621 52.0361 66.9873 80.0332z" />
    <glyph glyph-name="a" unicode="&#xe5;" horiz-adv-x="264" 
d="M208.592 252.495c15.3809 3.06738 35.668 -7.24805 33.8457 -25.7832c-6.13477 -62.1992 -7.13184 -124.388 -5.87598 -186.829c0.716797 -35.7168 -54.29 -35.5117 -55.3467 0.000976562c-1.02441 34.4287 -0.361328 68.8301 1.41797 103.188
c-1.16992 -1.53613 -2.31836 -3.08887 -3.49902 -4.62012c-16.5615 -21.4893 -33.3984 -43.0811 -52.5049 -62.3926c-27.7598 -28.0557 -86.7188 -68.7598 -108.963 -11.418c-17.7266 45.6963 18.7617 101.312 47.2764 134.652
c28.1045 32.8652 74.9648 54.3008 115.938 34.7197c7.6875 9.08398 16.5996 16.2656 27.7109 18.4814zM152.221 191.237c0.0810547 0.118164 0.166016 0.248047 0.251953 0.361328c-25.7432 -2.54492 -44.9688 -22.04 -59.6113 -44.5967
c-9.54297 -14.7021 -20.7617 -31.9111 -24.0068 -49.4814c3.6123 4.86328 12.0391 9.48926 16.3789 13.6836c24.9404 24.0879 46.6621 52.0361 66.9873 80.0332z" />
    <glyph glyph-name="a" unicode="&#xe4;" horiz-adv-x="264" 
d="M208.592 252.495c15.3809 3.06738 35.668 -7.24805 33.8457 -25.7832c-6.13477 -62.1992 -7.13184 -124.388 -5.87598 -186.829c0.716797 -35.7168 -54.29 -35.5117 -55.3467 0.000976562c-1.02441 34.4287 -0.361328 68.8301 1.41797 103.188
c-1.16992 -1.53613 -2.31836 -3.08887 -3.49902 -4.62012c-16.5615 -21.4893 -33.3984 -43.0811 -52.5049 -62.3926c-27.7598 -28.0557 -86.7188 -68.7598 -108.963 -11.418c-17.7266 45.6963 18.7617 101.312 47.2764 134.652
c28.1045 32.8652 74.9648 54.3008 115.938 34.7197c7.6875 9.08398 16.5996 16.2656 27.7109 18.4814zM152.221 191.237c0.0810547 0.118164 0.166016 0.248047 0.251953 0.361328c-25.7432 -2.54492 -44.9688 -22.04 -59.6113 -44.5967
c-9.54297 -14.7021 -20.7617 -31.9111 -24.0068 -49.4814c3.6123 4.86328 12.0391 9.48926 16.3789 13.6836c24.9404 24.0879 46.6621 52.0361 66.9873 80.0332z" />
    <glyph glyph-name="a" unicode="&#xe3;" horiz-adv-x="264" 
d="M208.592 252.495c15.3809 3.06738 35.668 -7.24805 33.8457 -25.7832c-6.13477 -62.1992 -7.13184 -124.388 -5.87598 -186.829c0.716797 -35.7168 -54.29 -35.5117 -55.3467 0.000976562c-1.02441 34.4287 -0.361328 68.8301 1.41797 103.188
c-1.16992 -1.53613 -2.31836 -3.08887 -3.49902 -4.62012c-16.5615 -21.4893 -33.3984 -43.0811 -52.5049 -62.3926c-27.7598 -28.0557 -86.7188 -68.7598 -108.963 -11.418c-17.7266 45.6963 18.7617 101.312 47.2764 134.652
c28.1045 32.8652 74.9648 54.3008 115.938 34.7197c7.6875 9.08398 16.5996 16.2656 27.7109 18.4814zM152.221 191.237c0.0810547 0.118164 0.166016 0.248047 0.251953 0.361328c-25.7432 -2.54492 -44.9688 -22.04 -59.6113 -44.5967
c-9.54297 -14.7021 -20.7617 -31.9111 -24.0068 -49.4814c3.6123 4.86328 12.0391 9.48926 16.3789 13.6836c24.9404 24.0879 46.6621 52.0361 66.9873 80.0332z" />
    <glyph glyph-name="a" unicode="&#xe2;" horiz-adv-x="264" 
d="M208.592 252.495c15.3809 3.06738 35.668 -7.24805 33.8457 -25.7832c-6.13477 -62.1992 -7.13184 -124.388 -5.87598 -186.829c0.716797 -35.7168 -54.29 -35.5117 -55.3467 0.000976562c-1.02441 34.4287 -0.361328 68.8301 1.41797 103.188
c-1.16992 -1.53613 -2.31836 -3.08887 -3.49902 -4.62012c-16.5615 -21.4893 -33.3984 -43.0811 -52.5049 -62.3926c-27.7598 -28.0557 -86.7188 -68.7598 -108.963 -11.418c-17.7266 45.6963 18.7617 101.312 47.2764 134.652
c28.1045 32.8652 74.9648 54.3008 115.938 34.7197c7.6875 9.08398 16.5996 16.2656 27.7109 18.4814zM152.221 191.237c0.0810547 0.118164 0.166016 0.248047 0.251953 0.361328c-25.7432 -2.54492 -44.9688 -22.04 -59.6113 -44.5967
c-9.54297 -14.7021 -20.7617 -31.9111 -24.0068 -49.4814c3.6123 4.86328 12.0391 9.48926 16.3789 13.6836c24.9404 24.0879 46.6621 52.0361 66.9873 80.0332z" />
    <glyph glyph-name="a" unicode="&#xe1;" horiz-adv-x="264" 
d="M208.592 252.495c15.3809 3.06738 35.668 -7.24805 33.8457 -25.7832c-6.13477 -62.1992 -7.13184 -124.388 -5.87598 -186.829c0.716797 -35.7168 -54.29 -35.5117 -55.3467 0.000976562c-1.02441 34.4287 -0.361328 68.8301 1.41797 103.188
c-1.16992 -1.53613 -2.31836 -3.08887 -3.49902 -4.62012c-16.5615 -21.4893 -33.3984 -43.0811 -52.5049 -62.3926c-27.7598 -28.0557 -86.7188 -68.7598 -108.963 -11.418c-17.7266 45.6963 18.7617 101.312 47.2764 134.652
c28.1045 32.8652 74.9648 54.3008 115.938 34.7197c7.6875 9.08398 16.5996 16.2656 27.7109 18.4814zM152.221 191.237c0.0810547 0.118164 0.166016 0.248047 0.251953 0.361328c-25.7432 -2.54492 -44.9688 -22.04 -59.6113 -44.5967
c-9.54297 -14.7021 -20.7617 -31.9111 -24.0068 -49.4814c3.6123 4.86328 12.0391 9.48926 16.3789 13.6836c24.9404 24.0879 46.6621 52.0361 66.9873 80.0332z" />
    <glyph glyph-name="b" unicode="b" horiz-adv-x="344" 
d="M313.961 223.291c22.4326 -79.6992 -0.389648 -178.787 -50.5928 -243.601c-20.2549 -26.1582 -56.7588 -59.6162 -92.5078 -42.6768c-32.4873 15.3916 -30.3252 57.5781 -23.2627 86.917c16.9502 70.415 66.334 136.172 118.273 186.435
c-4.22168 15.9531 -11.6943 30.0078 -24.9033 36.5312c-36.127 17.8506 -66.8896 -40.6826 -78.4756 -65.6172c-16.5781 -35.6846 -25.2314 -75.4883 -30.6494 -114.284c-5.24023 -37.5283 -2.63086 -78.5615 -17.042 -114.025
c-7.74707 -19.0693 -32.3477 -30.5254 -48.791 -12.8799c-19.3711 20.7832 -21.8457 45.0059 -24.1963 72.2266c-2.76562 32.0137 -5.19141 64.0645 -7.53125 96.1104c-4.81445 65.8701 -8.79883 131.811 -10.3564 197.848
c-2.66895 112.979 -0.889648 229.441 23.3115 340.312c9.67188 44.3271 22.7568 101.107 55.1797 135.083c30.0674 31.5068 77.0635 33.3936 104.661 -1.61719c62.0371 -78.6963 27.377 -205.736 1.47754 -291.377c-14.168 -46.8447 -29.6191 -93.7324 -50.5049 -138.075
c-17.4404 -37.0322 -39 -79.957 -75.4014 -101.269c0.118164 -2.41504 0.209961 -4.83008 0.339844 -7.24512c1.95117 -37.1084 4.52246 -74.1787 7.40137 -111.228c10.8906 44.6611 28.25 90.8154 57.8857 126.316c23.835 28.5518 60.792 51.6748 99.334 41.6846
c35.5391 -9.21387 56.9102 -42.041 66.3506 -75.5693zM83.5645 514.622c-4.92188 -70.7871 -5.37891 -141.724 -3.08789 -212.603c8.00586 10.7822 14.5127 23.1445 20.6104 34.0078c11.8496 21.1172 21.791 43.2109 30.4658 65.8057
c16.0547 41.8203 29.4141 85.0039 40.833 128.307c11.2676 42.7256 20.0664 86.6318 20.0342 130.991c-0.0166016 21.7266 -7.16016 109.47 -44.3545 93.7539c-17.2246 -7.27832 -24.5518 -34.6338 -30.2285 -50.5273c-7.24023 -20.2764 -12.998 -41.0439 -17.624 -62.0703
c-9.24609 -42.0088 -13.667 -84.8047 -16.6484 -127.665zM241.632 38.5c17.042 32.0781 26.8818 68.0273 28.9795 104.294c-33.9111 -38.6611 -63.1641 -83.958 -74.6533 -132.199c-1.25098 -5.25098 -4.44824 -14.1953 -2.94434 -19.8018
c2.98633 -11.1172 7.80566 -3.80078 16.0547 3.42871c13.8936 12.1787 23.9648 28.0938 32.5635 44.2783z" />
    <glyph glyph-name="c" unicode="c" horiz-adv-x="230" 
d="M177.903 103.238c12.8691 22.1475 44.0176 2.71777 33.71 -19.7041c-21.1279 -45.9609 -70.5869 -109.815 -129.292 -96.5479c-60.8838 13.7637 -67.7041 92.8047 -61.4561 142.814c6.88477 55.0498 29.9326 122.462 80.7344 152.318
c21.9961 12.9287 49.6641 14.9238 69.8115 -2.73242c21.6084 -18.9395 25.2471 -48.1543 26.3311 -75.2236c1.33691 -33.4688 -47.9717 -32.1104 -51.1738 0c-1.30469 13.0635 -0.625 37.168 -17.4619 30.1699c-12.5186 -5.20801 -23.0693 -23.2314 -29.5439 -34.3535
c-15.6182 -26.8271 -24.832 -59.3477 -26.9512 -90.2178c-1.74121 -25.3281 -1.3418 -86.4326 39.3516 -72.5283c28.374 9.69336 51.4922 41.1455 65.9404 66.0049z" />
    <glyph glyph-name="d" unicode="d" horiz-adv-x="304" 
d="M312.814 -78.4199c19.1816 25.1074 62.0635 2.20996 43.6465 -25.5068c-16.1572 -24.3096 -44.1006 -32.8008 -71.7197 -23.0752c-29.5928 10.4268 -44.4893 40.4834 -50.8994 69.2461c-18.4111 82.626 -19.2842 170.234 -17.2676 254.457
c0.442383 18.5625 1.05176 37.1191 1.74219 55.6709c-10.292 -61.3359 -23.6572 -122.284 -47.5889 -178.758c-14.4111 -34.0078 -38.0137 -75.3535 -75.5527 -87.5215c-28.9561 -9.38574 -56.3652 4.89062 -69.7412 31.2002
c-26.8594 52.834 3.49316 126.91 30.7246 173.312c20.7559 35.377 70.6465 92.1201 114.358 82.874c9.4668 54.9209 16.7607 110.311 25.1553 165.178c15.4189 100.773 30.6494 201.579 46.3379 302.31c4.61523 29.625 51.751 21.6348 51.2168 -6.93359
c-2.69531 -144.168 -12.1191 -287.883 -19.1543 -431.856c-3.51465 -71.9189 -6.12402 -144.027 -2.71094 -216.012c1.70898 -36.0518 4.84668 -72.1143 10.6904 -107.745c2.18359 -13.3223 3.82812 -28.5898 9.58105 -41.0166
c1.18066 -2.5498 15.2568 -23.5762 21.1816 -15.8232zM144.203 151.387c7.06836 25.9746 13.0146 52.248 18.2715 78.6865c-23.042 0.84082 -56.6514 -51.3955 -64.0371 -64.1885c-14.9717 -25.9375 -26.8652 -55.0879 -31.2754 -84.8857
c-2.19922 -14.8369 -5.82227 -56.3818 18.9502 -44.4189c16.6377 8.0332 29.501 35.3125 36.7412 51.1631c9.27344 20.2979 15.5059 42.165 21.3496 63.6436z" />
    <glyph glyph-name="e" unicode="e" horiz-adv-x="262" 
d="M216.826 125.521c13.834 17.3486 43.6104 -5.92578 30.6602 -23.6631c-37.9814 -52.0361 -104.164 -141.542 -181.006 -105.415c-73.6504 34.623 -51.207 141.941 -21.2637 198.685c17.1445 32.4873 44.6455 69.0508 80.6211 81.8496
c31.0537 11.0518 69.0186 2.19922 84.5674 -28.9785c37.9385 -76.0869 -71.1807 -124.635 -131.201 -108.143c-1.93555 -5.88184 -3.60645 -11.6396 -4.93848 -17.0898c-10.0713 -41.2266 -6.24902 -106.202 53.1191 -79.165
c35.6904 16.2549 65.4502 51.8262 89.4414 81.9199zM139.003 224.893c-15.1494 -8.06543 -27.834 -21.9746 -38.0342 -38.0566c17.5967 -1.91895 37.1289 1.18066 51.3887 11.3164c23.9531 17.0254 11.7422 40.1055 -13.3545 26.7402z" />
    <glyph glyph-name="e" unicode="&#xeb;" horiz-adv-x="262" 
d="M216.826 125.521c13.834 17.3486 43.6104 -5.92578 30.6602 -23.6631c-37.9814 -52.0361 -104.164 -141.542 -181.006 -105.415c-73.6504 34.623 -51.207 141.941 -21.2637 198.685c17.1445 32.4873 44.6455 69.0508 80.6211 81.8496
c31.0537 11.0518 69.0186 2.19922 84.5674 -28.9785c37.9385 -76.0869 -71.1807 -124.635 -131.201 -108.143c-1.93555 -5.88184 -3.60645 -11.6396 -4.93848 -17.0898c-10.0713 -41.2266 -6.24902 -106.202 53.1191 -79.165
c35.6904 16.2549 65.4502 51.8262 89.4414 81.9199zM139.003 224.893c-15.1494 -8.06543 -27.834 -21.9746 -38.0342 -38.0566c17.5967 -1.91895 37.1289 1.18066 51.3887 11.3164c23.9531 17.0254 11.7422 40.1055 -13.3545 26.7402z" />
    <glyph glyph-name="e" unicode="&#xea;" horiz-adv-x="262" 
d="M216.826 125.521c13.834 17.3486 43.6104 -5.92578 30.6602 -23.6631c-37.9814 -52.0361 -104.164 -141.542 -181.006 -105.415c-73.6504 34.623 -51.207 141.941 -21.2637 198.685c17.1445 32.4873 44.6455 69.0508 80.6211 81.8496
c31.0537 11.0518 69.0186 2.19922 84.5674 -28.9785c37.9385 -76.0869 -71.1807 -124.635 -131.201 -108.143c-1.93555 -5.88184 -3.60645 -11.6396 -4.93848 -17.0898c-10.0713 -41.2266 -6.24902 -106.202 53.1191 -79.165
c35.6904 16.2549 65.4502 51.8262 89.4414 81.9199zM139.003 224.893c-15.1494 -8.06543 -27.834 -21.9746 -38.0342 -38.0566c17.5967 -1.91895 37.1289 1.18066 51.3887 11.3164c23.9531 17.0254 11.7422 40.1055 -13.3545 26.7402z" />
    <glyph glyph-name="e" unicode="&#xe9;" horiz-adv-x="262" 
d="M216.826 125.521c13.834 17.3486 43.6104 -5.92578 30.6602 -23.6631c-37.9814 -52.0361 -104.164 -141.542 -181.006 -105.415c-73.6504 34.623 -51.207 141.941 -21.2637 198.685c17.1445 32.4873 44.6455 69.0508 80.6211 81.8496
c31.0537 11.0518 69.0186 2.19922 84.5674 -28.9785c37.9385 -76.0869 -71.1807 -124.635 -131.201 -108.143c-1.93555 -5.88184 -3.60645 -11.6396 -4.93848 -17.0898c-10.0713 -41.2266 -6.24902 -106.202 53.1191 -79.165
c35.6904 16.2549 65.4502 51.8262 89.4414 81.9199zM139.003 224.893c-15.1494 -8.06543 -27.834 -21.9746 -38.0342 -38.0566c17.5967 -1.91895 37.1289 1.18066 51.3887 11.3164c23.9531 17.0254 11.7422 40.1055 -13.3545 26.7402z" />
    <glyph glyph-name="f" unicode="f" horiz-adv-x="257" 
d="M221.648 230.439c24.1689 7.14355 34.0908 -29.9629 10.3477 -37.5322c-25.8027 -8.22168 -51.1689 -16.249 -76.8525 -23.2734c36.2344 -31.8838 55.4434 -82.1846 60.123 -133.51c5.07812 -55.7568 9.88672 -168.003 -60.4961 -187.837
c-78.6855 -22.1738 -106.138 96.3096 -114.316 149.688c-12.998 84.8096 -12.7881 172.126 -9.72559 257.69c3.1377 87.5537 11.0518 175.086 25.7324 261.48c5.27832 31.0703 59.083 23.5547 54.9746 -7.43945c-13.376 -100.887 -24.2822 -203.962 -26.3203 -306.763
c45.6367 6.84668 92.4111 14.459 136.533 27.4951zM167.63 -26.8291c2.19434 62.0156 -3.56348 167.065 -82.75 179.896c0.425781 -42.8389 2.52832 -85.5596 6.88477 -127.989c3.69336 -35.9863 7.64551 -84.5996 29.8301 -114.904
c33.8027 -46.165 45.2803 41.6533 46.0352 62.9971z" />
    <glyph glyph-name="g" unicode="g" horiz-adv-x="374" 
d="M324.573 175.691c22.6807 20.2275 56.3047 -13.4033 33.4082 -33.4268c-21.0039 -18.3682 -41.5986 -38.1807 -61.3203 -59.2178c1.84961 -25.7002 2.53418 -51.4648 2.45898 -77.2461c-0.318359 -112.171 -2.98145 -261.875 -102.893 -335.719
c-43.2275 -31.9541 -99.124 -24.2881 -109.486 34.2666c-10.6533 60.1885 12.3135 127.417 34.79 182.246c30.002 73.208 69.8975 140.874 119.276 201.429c-0.183594 3.49316 -0.318359 7.00293 -0.53418 10.4854c-1.3584 22.0986 0.0976562 56.123 -9.71484 78.9121
c-0.970703 -1.07812 -2.66309 -2.75488 -5.23438 -5.89844c-5.07812 -6.21094 -9.88672 -12.5889 -14.6045 -19.0742c-6.55078 -9.00879 -12.7773 -18.249 -19.2256 -27.333c-27.9756 -39.4209 -59.7734 -82.5889 -104.306 -104.493
c-44.5586 -21.9209 -80.9707 10.4912 -74.4258 57.2441c7.23535 51.7188 49.0391 98.8975 87.5977 131.525c33.3398 28.2129 90.0186 68.4531 132.475 35.8955c6.83105 -5.24023 9.80176 -11.8877 9.91504 -18.2441c15.7051 -3.53711 27.1611 -18.3682 34.0293 -33
c7.31641 -15.5811 11.1924 -33.0322 13.7588 -50.667c10.9824 11.0732 22.3145 21.8613 34.0352 32.3154zM176.873 172.241c7.60742 10.7559 15.7432 25.9365 26.0244 37.7217c-29.4521 3.22949 -69.6113 -36.3047 -86.3516 -53.249
c-22.1582 -22.4219 -49.0176 -51.0547 -55.1152 -83.2139c-4.21582 -22.2549 6.79883 -17.6504 22.3525 -7.49902c13.4023 8.74414 25.0039 19.4619 35.8779 31.1396c21.4678 23.0479 39.0596 49.4541 57.2119 75.1006zM236.598 -95.5918
c3.66113 37.7715 5.60645 76.1084 5.81641 114.381c-47.3838 -62.6631 -85.042 -132.922 -103.599 -206.998c-7.41797 -29.6191 -13.165 -63.3682 -7.3584 -93.8291c7.12207 -37.3506 46.5107 9.06836 56.7217 23.8135c32.3047 46.6455 43.0547 107.324 48.4189 162.633z
" />
    <glyph glyph-name="h" unicode="h" horiz-adv-x="289" 
d="M264.774 -5.91797c1.86523 -33.8945 -51.082 -33.793 -52.6885 0.00976562c-2.37207 49.7881 -1.58496 99.6846 -3.37988 149.494c-0.970703 26.9561 -2.00586 54.1006 -5.6123 80.8574c-1.41211 10.4756 -3.98926 20.5469 -5.96777 30.8926
c-0.00585938 0.0488281 -0.540039 2.25879 -1.18652 4.60938c-1.83887 -5.40723 -7.94727 -12.9062 -8.68555 -14.3184c-31.7383 -60.5488 -42.5693 -135.967 -53.8105 -202.662c-4.37793 -25.9863 -6.09766 -65.7949 -33.7334 -78.2217
c-28.2607 -12.7021 -44.9033 11.8447 -51.292 35.9434c-17.6406 66.5498 -18.4062 139.127 -20.5361 207.521c-2.22656 71.6553 -0.53418 143.289 8.49609 214.47c8.27051 65.2129 18.9883 136.011 51.7129 194.08c11.7314 20.8154 29.9111 43.96 56.7539 41.7715
c25.8779 -2.1084 40.0781 -25.0967 46.3643 -47.9014c16.8535 -61.1211 -1.92969 -133.596 -19.7422 -192.517c-18.1953 -60.1768 -43.4482 -123.341 -84.1035 -172.002c-1.40723 -1.68164 -2.90625 -2.88965 -4.43164 -3.89746
c0.0273438 -1.08887 0.0488281 -2.18359 0.0761719 -3.27246c1.0459 -40.6982 3.21289 -81.4023 6.35645 -121.987c0.803711 -10.4375 1.50977 -21.2578 2.36719 -32.1963c1.81641 10.4482 3.57422 20.6699 5.7627 30.1367c8.99219 38.8711 18.9824 77.6074 32.8545 115.065
c9.84961 26.5947 23.4414 66.4092 51.584 79.0947c24.4707 11.0303 44.8389 -4.28613 54.4619 -26.4492c18.3145 -42.1816 19.7705 -93.8408 22.6006 -139.025c3.11621 -49.7939 3.03516 -99.7012 5.7793 -149.495zM98.5615 491.564
c-11.4512 -61.0508 -15.6299 -123.164 -16.1904 -185.266c33.4043 56.8994 52.1064 127.325 63.1367 189.551c2.39941 13.543 13.3115 122.592 -9.78418 109c-12.001 -7.0625 -20.0938 -43.4102 -23.7656 -55.7666c-5.6123 -18.8799 -9.76855 -38.1641 -13.3965 -57.5186z
" />
    <glyph glyph-name="i" unicode="i" horiz-adv-x="110" 
d="M77.5293 233.68c2.28613 -49.7666 3.68945 -99.6094 4.99414 -149.403c1.25098 -47.75 5.44531 -96.7617 -1.04004 -144.216c-2.8252 -20.6377 -35.7227 -18.8691 -39.9658 0c-10.4971 46.667 -9.74805 96.5957 -12.0127 144.217
c-2.36133 49.7617 -4.33496 99.5928 -5.1709 149.402c-0.577148 34.4229 51.6318 34.0186 53.1953 0zM57.9883 308.758c-2.77148 -5.00879 -8.0752 -8.52344 -16.0703 -8.18945c-31.415 1.32129 -53.2334 32.2617 -59.46 61.1699
c-5.95703 27.668 6.93848 56.2793 28.6543 73.4346c22.0234 17.3926 54.1768 18.1582 68.7656 -9.19727c14.7725 -27.7061 0.134766 -73.5479 -7.58594 -101.518c-2.36719 -8.56152 -7.87207 -13.5811 -14.3037 -15.7002zM36.376 381.162
c0.571289 3.24512 0.40332 9.12695 0.953125 13.6289c-5.53125 -7.60156 -10.9062 -13.0576 -9.16504 -24.2988c0.162109 -1.06738 1.75293 -5.43945 3.80176 -10.5938c1.64941 7.04102 3.15918 14.1201 4.41016 21.2637z" />
    <glyph glyph-name="i" unicode="&#xef;" horiz-adv-x="110" 
d="M77.5293 233.68c2.28613 -49.7666 3.68945 -99.6094 4.99414 -149.403c1.25098 -47.75 5.44531 -96.7617 -1.04004 -144.216c-2.8252 -20.6377 -35.7227 -18.8691 -39.9658 0c-10.4971 46.667 -9.74805 96.5957 -12.0127 144.217
c-2.36133 49.7617 -4.33496 99.5928 -5.1709 149.402c-0.577148 34.4229 51.6318 34.0186 53.1953 0zM57.9883 308.758c-2.77148 -5.00879 -8.0752 -8.52344 -16.0703 -8.18945c-31.415 1.32129 -53.2334 32.2617 -59.46 61.1699
c-5.95703 27.668 6.93848 56.2793 28.6543 73.4346c22.0234 17.3926 54.1768 18.1582 68.7656 -9.19727c14.7725 -27.7061 0.134766 -73.5479 -7.58594 -101.518c-2.36719 -8.56152 -7.87207 -13.5811 -14.3037 -15.7002zM36.376 381.162
c0.571289 3.24512 0.40332 9.12695 0.953125 13.6289c-5.53125 -7.60156 -10.9062 -13.0576 -9.16504 -24.2988c0.162109 -1.06738 1.75293 -5.43945 3.80176 -10.5938c1.64941 7.04102 3.15918 14.1201 4.41016 21.2637z" />
    <glyph glyph-name="i" unicode="&#xee;" horiz-adv-x="110" 
d="M77.5293 233.68c2.28613 -49.7666 3.68945 -99.6094 4.99414 -149.403c1.25098 -47.75 5.44531 -96.7617 -1.04004 -144.216c-2.8252 -20.6377 -35.7227 -18.8691 -39.9658 0c-10.4971 46.667 -9.74805 96.5957 -12.0127 144.217
c-2.36133 49.7617 -4.33496 99.5928 -5.1709 149.402c-0.577148 34.4229 51.6318 34.0186 53.1953 0zM57.9883 308.758c-2.77148 -5.00879 -8.0752 -8.52344 -16.0703 -8.18945c-31.415 1.32129 -53.2334 32.2617 -59.46 61.1699
c-5.95703 27.668 6.93848 56.2793 28.6543 73.4346c22.0234 17.3926 54.1768 18.1582 68.7656 -9.19727c14.7725 -27.7061 0.134766 -73.5479 -7.58594 -101.518c-2.36719 -8.56152 -7.87207 -13.5811 -14.3037 -15.7002zM36.376 381.162
c0.571289 3.24512 0.40332 9.12695 0.953125 13.6289c-5.53125 -7.60156 -10.9062 -13.0576 -9.16504 -24.2988c0.162109 -1.06738 1.75293 -5.43945 3.80176 -10.5938c1.64941 7.04102 3.15918 14.1201 4.41016 21.2637z" />
    <glyph glyph-name="i" unicode="&#xed;" horiz-adv-x="110" 
d="M77.5293 233.68c2.28613 -49.7666 3.68945 -99.6094 4.99414 -149.403c1.25098 -47.75 5.44531 -96.7617 -1.04004 -144.216c-2.8252 -20.6377 -35.7227 -18.8691 -39.9658 0c-10.4971 46.667 -9.74805 96.5957 -12.0127 144.217
c-2.36133 49.7617 -4.33496 99.5928 -5.1709 149.402c-0.577148 34.4229 51.6318 34.0186 53.1953 0zM57.9883 308.758c-2.77148 -5.00879 -8.0752 -8.52344 -16.0703 -8.18945c-31.415 1.32129 -53.2334 32.2617 -59.46 61.1699
c-5.95703 27.668 6.93848 56.2793 28.6543 73.4346c22.0234 17.3926 54.1768 18.1582 68.7656 -9.19727c14.7725 -27.7061 0.134766 -73.5479 -7.58594 -101.518c-2.36719 -8.56152 -7.87207 -13.5811 -14.3037 -15.7002zM36.376 381.162
c0.571289 3.24512 0.40332 9.12695 0.953125 13.6289c-5.53125 -7.60156 -10.9062 -13.0576 -9.16504 -24.2988c0.162109 -1.06738 1.75293 -5.43945 3.80176 -10.5938c1.64941 7.04102 3.15918 14.1201 4.41016 21.2637z" />
    <glyph glyph-name="j" unicode="j" horiz-adv-x="119" 
d="M48.1475 305.961c-31.415 1.32129 -53.2324 32.2617 -59.4648 61.1699c-5.95703 27.668 6.93848 56.2793 28.6543 73.4346c22.0234 17.3926 54.1768 18.1582 68.7656 -9.19727c14.7725 -27.7061 0.134766 -73.5479 -7.58594 -101.518
c-2.36133 -8.56152 -7.86621 -13.5811 -14.2979 -15.7002c-2.77637 -5.00879 -8.07617 -8.52344 -16.0713 -8.18945zM43.5605 400.184c-5.53125 -7.60156 -10.9023 -13.0586 -9.16602 -24.2939c0.162109 -1.06738 1.75293 -5.43945 3.80176 -10.5938
c1.64941 7.04102 3.15918 14.1201 4.41016 21.2637c0.566406 3.24023 0.404297 9.12207 0.954102 13.624zM69.5234 272.674c20.7725 -121.417 30.3379 -250.714 26.1865 -373.84c-1.88184 -55.7461 -6.49121 -117.687 -30.0566 -169.049
c-19.0957 -41.6094 -64.8301 -69.3262 -108.462 -45.249c-25.3877 14.0117 -7.42383 58.9209 20.0557 47.5781c66.3555 -27.3877 63.8428 201.051 63.3467 235.803c-1.43359 99.8623 -12.5879 198.98 -16.2432 298.644c-0.943359 25.6514 40.79 31.749 45.1729 6.11328z" />
    <glyph glyph-name="k" unicode="k" horiz-adv-x="260" 
d="M274.715 618.95c-10.583 -63.8057 -25.3555 -126.913 -43.6807 -188.923c-30.4336 -102.908 -71.0244 -202.663 -118.721 -298.773c6.31836 4.02734 12.5342 7.58594 17.8984 10.6807c28.7627 16.5947 59.3262 32.6768 90.6221 43.8311
c22.8701 8.15137 31.1514 -23.668 15.0908 -35.7979c-19.6992 -14.874 -41.6475 -26.7021 -62.9482 -39.124c-2.90625 -1.69238 -11.5811 -6.21582 -20.7998 -11.5049c5.15918 0.835938 9.75293 1.60645 13.0205 1.88672c18.6426 1.59082 37.2422 3.49902 55.9443 4.29199
c27.8838 1.18066 34.6064 -45.1465 6.65234 -49.1465c-32.9248 -4.71191 -66.6738 -8.37305 -99.9268 -9.67188c-10.9385 -0.425781 -23.6133 0.630859 -34.0508 4.76074c3.45605 -26.5469 7.68262 -53.0342 12.9072 -79.4619
c5.98438 -30.2881 -38.4131 -43.2051 -46.667 -12.8682c-38.4238 141.251 -37.0381 296.611 -30.4824 441.841c5.71973 126.76 24.1689 255.902 75.6504 372.839c19.4844 44.2627 52.5488 105.34 102.375 120.996c58.9102 18.5137 81.4561 -47.9443 84.4424 -93.5332
c3.9248 -59.9404 -7.54785 -123.342 -17.3271 -182.322zM82.3281 188.951c40.7256 85.2305 75.3613 173.224 102.382 263.926c30.4121 102.067 53.8857 209.478 59.002 316.133c0.776367 16.2061 3.87109 82.5459 -24.1045 75.3643
c-17.5645 -4.5127 -35.9814 -36.6719 -44.791 -51.0938c-26.9189 -44.084 -43.4434 -94.9883 -56.7979 -144.609c-29.1396 -108.278 -36.8223 -220.676 -37.6309 -332.394c-0.307617 -42.5645 0.145508 -85.0098 1.94043 -127.326z" />
    <glyph glyph-name="l" unicode="l" horiz-adv-x="131" 
d="M260.929 -62.4189c24.0068 8.03809 33.5459 -29.0186 10.3525 -37.5312c-36.8057 -13.5 -75.7148 -28.4609 -115.443 -18.7617c-35.0703 8.56641 -61.2988 35.0752 -76.8477 66.7754c-36.9785 75.3965 -46.8604 166.654 -52.6133 249.303
c-11.2783 162.019 -4.44727 329.967 17.0527 490.848c10.3838 77.7148 25.7217 154.961 50.0098 229.603c17.0146 52.29 45.0332 150.901 111.232 160.514c74.7656 10.8525 65.2285 -110.225 61.5195 -153.031c-6.88477 -79.4561 -21.5918 -158.944 -39.0977 -236.676
c-36.6064 -162.541 -92.6865 -319.206 -146.966 -476.421c0.280273 -4.94922 0.539062 -9.89844 0.851562 -14.8369c4.29688 -67.3965 13.8174 -135.369 34.4873 -199.865c8.92773 -27.8623 22.6543 -60.7061 52.9531 -70.5342
c29.8027 -9.66699 64.043 1.07812 92.5088 10.6152zM76.6631 347.837c37.7285 106.272 72.9023 213.542 101.368 322.559c18.4111 70.5176 34.5361 142.211 43.7393 214.567c4.24805 33.3984 7.71973 67.3145 5.47168 101.005
c-0.479492 7.16992 0.226562 38.6064 -8.9873 44.3809c-12.8369 8.04395 -28.7793 -21.3604 -33.8096 -29.5117c-33.7871 -54.7324 -48.6289 -126.317 -62.7158 -188.36c-15.1982 -66.9482 -25.291 -134.953 -31.707 -203.282
c-8.09766 -86.2119 -13.0361 -173.938 -13.3594 -261.357z" />
    <glyph glyph-name="m" unicode="m" horiz-adv-x="437" 
d="M415.703 19.7549c2.74414 -35.1777 -51.1768 -34.4404 -54.4492 0.00390625c-4.30176 45.1357 -7.66016 90.3311 -10.9648 135.553c-1.45605 19.8936 -1.69336 40.2402 -4.79883 59.9668c-0.954102 6.05469 -2.36133 11.8506 -4.09766 17.5918
c-0.329102 -0.286133 -0.625977 -0.572266 -1.02539 -0.863281c-3.11035 -3.6875 -5.81641 -7.64453 -8.12402 -11.8926c-40.8662 -66.4795 -58.5762 -158.131 -58.458 -235.183c0.0429688 -28.9785 -35.8193 -34.6553 -50.8662 -13.7803
c-11.3809 15.7852 -11.0469 38.5684 -12.7666 57.3457c-1.90332 20.7832 -2.96582 41.6416 -3.92578 62.4844c-2.00586 43.4375 -2.94434 86.9668 -6.27051 130.334c-0.151367 1.97363 -1.39648 8.53516 -2.54492 15.3447
c-8.5293 -13.7266 -15.8076 -28.4443 -22.8164 -42.8984c-17.6992 -36.5098 -31.4258 -74.7773 -44.1865 -113.244c-9.34863 -28.1748 -16.4922 -79.8496 -42.8984 -97.749c-35.2373 -23.8828 -54.3115 20.083 -56.6133 47.6973
c-3.38574 40.5586 -1.22363 82.2764 -1.1377 122.948c0.0966797 45.2275 0.916016 90.3096 4.42578 135.402c1.94629 25.0312 36.6768 24.8584 38.79 -0.000976562c3.83301 -45.082 4.98145 -90.1797 5.94141 -135.401c0.442383 -21.0205 0.938477 -42.041 1.51562 -63.0615
c1.40137 5.41309 2.60938 9.92578 3.58496 12.8047c9.35352 27.6191 19.457 54.9639 30.8652 81.8066c11.1221 26.1748 23.4199 51.875 37.9766 76.3301c10.292 17.29 23.9209 39.8848 45.5723 44.041c55.2979 10.6152 53.9287 -82.7451 56.624 -115.249
c0.916016 -11.0254 1.62793 -22.0615 2.28027 -33.1025c0.301758 1.0459 0.549805 2.10254 0.857422 3.1377c11.5371 38.8604 30.0127 105.712 70.2314 125.299c51.2979 24.9775 65.8867 -52.1172 70.0215 -85.5264c7.40234 -59.8057 12.5674 -120.069 17.2578 -180.139z
" />
    <glyph glyph-name="n" unicode="n" horiz-adv-x="296" 
d="M273.695 3.42969c3.42871 -35.6738 -51.1406 -34.6348 -55.2061 0.00976562c-5.25098 44.6777 -8.31836 89.7109 -9.87598 134.663c-0.716797 20.5889 -0.84082 41.1777 -1.15332 61.7773c-0.113281 7.14355 1.77344 45.3027 -3.65039 57.6377
c-0.264648 -4.19434 -8.25977 -9.97363 -11.3223 -14.6582c-5.15918 -7.89844 -9.68262 -16.2549 -14.0547 -24.6006c-9.6123 -18.3301 -17.9961 -37.2588 -25.29 -56.6299c-13.8936 -36.8975 -24.5039 -74.96 -33.9336 -113.217
c-5.96777 -24.1855 -10.3672 -69.8174 -44.834 -66.8848c-34.7627 2.96484 -36.2773 47.6904 -39.5713 73.8594c-5.0459 40.0518 -6.73828 80.3838 -6.87305 120.727c-0.113281 35.2266 -5.10059 77.667 9.24512 110.564c10.3779 23.7969 44.3213 5.76855 39.6094 -16.6973
c-4.22168 -20.1152 -1.17578 -43.0713 -0.831055 -63.5361c0.339844 -20.2227 0.921875 -40.4395 2.0166 -60.6406c0.706055 -13.0898 1.63379 -26.1904 2.82031 -39.2588c0.770508 2.70117 1.49805 5.40723 2.29102 8.10254
c8.17285 27.8516 17.5752 55.2822 28.7676 82.0664c15.7266 37.6309 43.8848 115.604 93.7969 116.478c56.1768 0.975586 53.8965 -85.4844 55.1152 -123.175c2.02148 -62.4043 6.95996 -124.458 12.9336 -186.587z" />
    <glyph glyph-name="o" unicode="o" horiz-adv-x="235" 
d="M187.147 233.825c48.6719 -41.8574 35.8398 -114.348 2.55469 -161.65c-29.9219 -42.5156 -101.652 -94.8057 -141.067 -31.6309c-25.0586 40.1592 -14.2217 94.5029 2.97656 141.892c-21.7109 -15.0527 -50.9854 17.3594 -30.876 39.6904
c39.8145 44.208 120.904 50.834 166.412 11.6992zM147.105 101.815c18.3896 25.5762 35.4746 69.3213 6.54004 93.9375c-9.19238 7.81152 -21.042 12.0059 -33.5176 13.2188c-14.2168 -34.6875 -29.043 -70.1885 -30.3965 -108.105
c-0.592773 -16.584 -1.1377 -40.2783 21.2734 -32.1914c14.0498 5.0625 27.7061 21.4629 36.1006 33.1406z" />
    <glyph glyph-name="o" unicode="&#xf6;" horiz-adv-x="235" 
d="M187.147 233.825c48.6719 -41.8574 35.8398 -114.348 2.55469 -161.65c-29.9219 -42.5156 -101.652 -94.8057 -141.067 -31.6309c-25.0586 40.1592 -14.2217 94.5029 2.97656 141.892c-21.7109 -15.0527 -50.9854 17.3594 -30.876 39.6904
c39.8145 44.208 120.904 50.834 166.412 11.6992zM147.105 101.815c18.3896 25.5762 35.4746 69.3213 6.54004 93.9375c-9.19238 7.81152 -21.042 12.0059 -33.5176 13.2188c-14.2168 -34.6875 -29.043 -70.1885 -30.3965 -108.105
c-0.592773 -16.584 -1.1377 -40.2783 21.2734 -32.1914c14.0498 5.0625 27.7061 21.4629 36.1006 33.1406z" />
    <glyph glyph-name="o" unicode="&#xf5;" horiz-adv-x="235" 
d="M187.147 233.825c48.6719 -41.8574 35.8398 -114.348 2.55469 -161.65c-29.9219 -42.5156 -101.652 -94.8057 -141.067 -31.6309c-25.0586 40.1592 -14.2217 94.5029 2.97656 141.892c-21.7109 -15.0527 -50.9854 17.3594 -30.876 39.6904
c39.8145 44.208 120.904 50.834 166.412 11.6992zM147.105 101.815c18.3896 25.5762 35.4746 69.3213 6.54004 93.9375c-9.19238 7.81152 -21.042 12.0059 -33.5176 13.2188c-14.2168 -34.6875 -29.043 -70.1885 -30.3965 -108.105
c-0.592773 -16.584 -1.1377 -40.2783 21.2734 -32.1914c14.0498 5.0625 27.7061 21.4629 36.1006 33.1406z" />
    <glyph glyph-name="o" unicode="&#xf4;" horiz-adv-x="235" 
d="M187.147 233.825c48.6719 -41.8574 35.8398 -114.348 2.55469 -161.65c-29.9219 -42.5156 -101.652 -94.8057 -141.067 -31.6309c-25.0586 40.1592 -14.2217 94.5029 2.97656 141.892c-21.7109 -15.0527 -50.9854 17.3594 -30.876 39.6904
c39.8145 44.208 120.904 50.834 166.412 11.6992zM147.105 101.815c18.3896 25.5762 35.4746 69.3213 6.54004 93.9375c-9.19238 7.81152 -21.042 12.0059 -33.5176 13.2188c-14.2168 -34.6875 -29.043 -70.1885 -30.3965 -108.105
c-0.592773 -16.584 -1.1377 -40.2783 21.2734 -32.1914c14.0498 5.0625 27.7061 21.4629 36.1006 33.1406z" />
    <glyph glyph-name="o" unicode="&#xf3;" horiz-adv-x="235" 
d="M187.147 233.825c48.6719 -41.8574 35.8398 -114.348 2.55469 -161.65c-29.9219 -42.5156 -101.652 -94.8057 -141.067 -31.6309c-25.0586 40.1592 -14.2217 94.5029 2.97656 141.892c-21.7109 -15.0527 -50.9854 17.3594 -30.876 39.6904
c39.8145 44.208 120.904 50.834 166.412 11.6992zM147.105 101.815c18.3896 25.5762 35.4746 69.3213 6.54004 93.9375c-9.19238 7.81152 -21.042 12.0059 -33.5176 13.2188c-14.2168 -34.6875 -29.043 -70.1885 -30.3965 -108.105
c-0.592773 -16.584 -1.1377 -40.2783 21.2734 -32.1914c14.0498 5.0625 27.7061 21.4629 36.1006 33.1406z" />
    <glyph glyph-name="p" unicode="p" horiz-adv-x="325" 
d="M296.833 275.44c36.332 -46.0039 -0.323242 -115.478 -30.2236 -154.375c-25.3389 -32.9678 -58.5273 -59.9131 -96.126 -77.4619c1.96289 -170.207 8.04395 -340.371 17.6836 -510.298c1.73047 -30.4932 -44.8281 -29.9434 -47.1299 0
c-12.6104 164.083 -19.9375 328.419 -22.752 492.868c-1.32617 -0.280273 -2.63672 -0.609375 -3.96875 -0.862305c-34.2402 -6.5293 -49.0283 45.2803 -14.5137 52.6396c5.84375 1.24512 11.7793 2.79199 17.7529 4.58203
c-0.571289 52.7314 -0.678711 105.469 -0.349609 158.217c-4.9707 -1.82227 -9.8877 -3.76855 -14.7178 -5.89258c-9.69336 -4.26465 -18.999 -9.20801 -28.126 -14.5781c-5.00293 -2.89551 -9.91406 -5.95215 -14.7285 -9.1543
c-1.63379 -1.99512 -3.00879 -3.45117 -4.125 -4.37891c5.28906 -17.1387 -20.1523 -29.5713 -34.5361 -18.1094c-51.8584 41.3242 66.4902 91.8135 96.6328 101.804c0.0537109 5.06738 0.0537109 10.1348 0.118164 15.1973c0.447266 34.1807 53.584 34.1592 53.0723 0
c-0.0166016 -0.938477 -0.0166016 -1.87695 -0.0273438 -2.80957c46.3545 7.08398 100.208 5.35352 126.064 -27.3877zM261.94 221.392c7.24023 45.373 -59.6162 37.7383 -91.6621 32.7461c-0.479492 -49.7236 -0.663086 -99.4473 -0.387695 -149.176
c45.2861 25.6895 84.0117 66.043 92.0498 116.43z" />
    <glyph glyph-name="q" unicode="q" horiz-adv-x="298" 
d="M276.997 -52.0947c31.7334 2.32324 31.8096 -47.793 0.00683594 -49.5234c-1.71484 -0.0966797 -3.42383 -0.226562 -5.13867 -0.329102c3.20801 -42.5908 7.68262 -85.0791 13.0791 -127.52c4.02148 -31.625 -50.7969 -38.6387 -55.4707 -7.50977
c-6.49121 43.249 -11.1387 86.7295 -14.1689 130.328c-4.57227 -0.46875 -9.14355 -0.9375 -13.7158 -1.43359c-26.0508 -2.84082 -31.3828 40.5264 -6.14648 45.4219c5.71484 1.11035 11.4512 2.0918 17.1982 3.03516c-0.883789 20.9668 -1.41211 41.96 -1.55762 62.959
c-0.275391 39.8037 0.958984 79.6348 3.42285 119.368c0.425781 6.88965 0.964844 13.7852 1.52539 20.6748c-4.10254 -7.11621 -8.24805 -14.2109 -12.5449 -21.2139c-17.8447 -29.1074 -37.3184 -58.0586 -59.9082 -83.7373
c-18.8213 -21.3926 -46.2197 -46.5537 -76.9766 -44.4561c-32.6924 2.22656 -47.8037 32.5684 -50.8125 61.6865c-6.92773 67.0938 32.6602 138.856 80.9932 182.903c22.5088 20.5137 51.1152 42.1924 83.0908 42.1279
c19.4297 -0.0380859 36.8115 -8.58887 48.3164 -22.6172c17.1064 14.0654 39.7656 2.13477 42.0459 -19.0039c4.18945 -38.8389 -0.0859375 -77.5215 -1.87598 -116.371c-1.75195 -38.0303 -2.22656 -76.1084 -1.66016 -114.176
c0.301758 -20.4707 1.00293 -40.9092 2.02734 -61.3262c2.76074 0.231445 5.51562 0.506836 8.27051 0.711914zM161.803 152.057c12.1406 19.9043 22.3506 43.417 34.7285 64.9121c-1.0459 1.67676 -1.95703 3.52637 -2.67383 5.61816
c-13.4463 39.3613 -90.3691 -53.6006 -97.1787 -64.7607c-10.8906 -17.8447 -19.0635 -36.79 -24.1797 -57.0771c-2.93262 -11.6348 -5.00293 -23.5547 -4.06445 -35.6201c0.183594 -6.63672 1.66602 -12.9395 4.45312 -18.9023
c0.894531 2.02148 2.49023 3.29395 4.79199 3.82812c17.6777 4.14551 36.7246 32.9561 46.876 46.4824c13.3809 17.8232 25.6455 36.499 37.2471 55.5195z" />
    <glyph glyph-name="r" unicode="r" horiz-adv-x="284" 
d="M238.26 287.123c29.3066 -32.5684 29.2627 -88.5898 30.6211 -129.574c1.11621 -33.8896 -51.4541 -33.7383 -52.5645 0c-0.630859 19.166 -0.84082 38.6719 -4.33398 57.5947c-1.36426 7.40234 -2.48535 20.1045 -7.0625 26.5684
c-7.2998 10.3076 1.26172 10.3506 -8.60449 1.07227c-12.583 -11.834 -20.1582 -33.1514 -27.4092 -48.4785c-8.1084 -17.1279 -15.1982 -34.6875 -21.668 -52.4951c-12.8525 -35.3613 -23.2256 -71.5801 -32.4395 -108.041
c-6.78809 -26.8701 -9.51562 -72.7871 -41.0166 -82.168c-8.74414 -2.60352 -21.1328 -0.199219 -27.1494 7.17578c-14.1787 17.3818 -14.373 38.6885 -15.3115 60.2646c-1.20801 27.6465 -1.73145 55.3311 -1.83887 82.999
c-0.205078 53.002 -3.0625 109.874 7.9248 161.948c5.87109 27.8301 53.2607 21.625 49.8857 -6.74902c-5.2832 -44.4189 -4.60352 -89.7598 -4.16113 -134.438c0.0107422 -1.14844 0.0488281 -2.29102 0.0595703 -3.43945c2.48535 7.61816 5.03516 15.2197 7.71973 22.7725
c15.209 42.7686 32.6338 88.4004 59.25 125.471c21.2578 29.6084 58.4248 52.4893 88.0986 19.5166z" />
    <glyph glyph-name="s" unicode="s" horiz-adv-x="241" 
d="M212.345 71.9473c39.2539 -42.084 -4.61914 -82.6748 -47.8682 -91.7754c-47.9336 -10.0762 -95.1074 3.57422 -132.62 34.0674c-23.5488 19.1445 9.76367 51.2119 33.0596 33.0596c20.7451 -16.1631 47.626 -23.7705 73.7686 -21.5654
c6.48047 0.544922 32.418 2.85742 35.5127 10.0654c0.959961 2.23242 -17.5371 13.7969 -23.1768 17.2529c-40.4453 24.7725 -94.6709 41.2207 -120.792 83.7412c-27.6895 45.0713 -0.0322266 96.9033 38.0947 125.531c37.2969 28.002 85.2734 36.7246 129.983 23.7529
c31.8457 -9.24023 18.4697 -56.7588 -13.6406 -49.4697c-26.0127 5.89844 -53.6055 2.19434 -76.5342 -11.8555c-22.2871 -13.6611 -48.791 -42.7627 -26.3037 -67.25c35.2588 -38.3916 94.4492 -46.8828 130.517 -85.5547z" />
    <glyph glyph-name="t" unicode="t" horiz-adv-x="178" 
d="M271.546 729.692c25.8994 -41.8418 27.5449 -99.2812 22.0674 -146.708c-6.26465 -54.1875 -24.5732 -105.814 -49.4482 -154.163c-24.2441 -47.125 -54.9199 -91.6572 -89.915 -131.444c-1.39648 -1.59082 -2.81445 -3.19727 -4.24316 -4.80371
c6.48535 1.52051 12.96 3.11133 19.4023 4.82617c32.5469 8.67969 46.3701 -42.0195 13.8721 -50.3164c-24.2715 -6.2002 -48.5156 -10.5674 -72.9268 -13.6406c0.301758 -21.4414 0.868164 -42.8613 1.70898 -64.2266c1.78418 -45.4482 5.12109 -90.7998 9.47168 -136.07
c2.4043 -24.999 5.19727 -49.9609 8.43164 -74.8682c1.48828 -11.4668 2.88965 -22.9443 4.29102 -34.4219c0.183594 -1.48828 0.992188 -11.042 1.00879 -16.9346c3.21289 -2.49121 5.71973 -5.94141 6.87891 -10.4805
c0.209961 -0.84082 0.425781 -1.67676 0.641602 -2.51758c2.33984 -9.14941 -1.4502 -20.126 -10.0654 -24.7354c-0.938477 -0.500977 -1.88184 -1.00781 -2.82031 -1.50879c-9.09473 -4.86328 -19.1436 -3.31641 -26.7939 3.45996
c-17.8936 15.8506 -17.7588 55.2285 -21.1768 77.3115c-5.14844 33.3018 -9.39648 66.835 -12.8145 100.357c-6.04883 59.3418 -9.50488 118.979 -10.6211 178.623c-10.4863 -1.84375 -21.5166 -1.73047 -33.1455 0.99707
c-28.5469 6.69043 -21.8672 51.1357 6.84082 50.5645c8.2002 -0.162109 16.3789 0.015625 24.541 0.349609c0.442383 0.151367 0.895508 0.248047 1.34277 0.410156c0.323242 109.049 7.90332 219.904 37.8516 325.034c13.5967 47.7344 31.5117 99.0703 67.3311 135.03
c35.1729 35.3184 81.4297 33.2646 108.289 -10.124zM224.815 503.657c14.9072 38.5527 24.3896 79.333 23.8936 120.813c-0.269531 22.7129 -2.57129 46.542 -11.8174 67.541c-4.05469 9.20801 -10.6914 24.8369 -23.377 22.0225
c-7.32715 -1.62793 -16.4326 -14.6104 -20.5781 -20.0605c-50.7588 -66.7119 -64.8193 -166.962 -73.666 -247.934c-4.36719 -39.9707 -6.90625 -80.2109 -8.16797 -120.516c15.1709 16.3623 29.415 33.5928 42.5264 51.6318
c28.4229 39.1084 53.7188 81.3057 71.1865 126.501z" />
    <glyph glyph-name="u" unicode="u" horiz-adv-x="328" 
d="M308.1 11.3174c6.58301 -35.3184 -47.0752 -50.5205 -54.2236 -14.9492c-9.04688 45.0166 -13.5322 90.5996 -16.1904 136.403c-1.30469 22.5244 -2.29688 45.0654 -3.49902 67.5957c-0.0810547 1.43359 -0.177734 2.86719 -0.25293 4.30664
c-2.25879 -4.95996 -4.52832 -9.91406 -6.70605 -14.9062c-12.1465 -27.8672 -23.1064 -56.2471 -34.9727 -84.2334c-18.0557 -42.5967 -41.4268 -113.572 -88.8271 -132.323c-109.604 -43.3564 -75.2842 247.162 -60.458 295.01
c8.08691 26.0986 43.2969 14.583 39.7227 -10.9502c-5.95703 -42.5645 -5.29883 -87.2852 -5.14746 -130.194c0.0644531 -18.875 0.306641 -37.9277 1.95605 -56.7432c0.921875 -10.4912 1.98438 -21.0527 4.6748 -31.2695
c1.04102 -4.66895 2.58301 -9.1709 4.35645 -13.5918c12.6914 7.16504 22.7949 31.6787 29.1025 43.5605c8.85254 16.6748 16.8096 33.8193 24.3955 51.1035c15.1982 34.623 28.6553 69.9844 44.2686 104.429c10.5996 23.3818 23.9375 67.0781 48.1816 79.5586
c30.6875 15.7959 44.2793 -20.0771 47.3418 -43.249c10.9824 -83.0742 10.8799 -166.936 26.2773 -249.557z" />
    <glyph glyph-name="u" unicode="&#xfc;" horiz-adv-x="328" 
d="M308.1 11.3174c6.58301 -35.3184 -47.0752 -50.5205 -54.2236 -14.9492c-9.04688 45.0166 -13.5322 90.5996 -16.1904 136.403c-1.30469 22.5244 -2.29688 45.0654 -3.49902 67.5957c-0.0810547 1.43359 -0.177734 2.86719 -0.25293 4.30664
c-2.25879 -4.95996 -4.52832 -9.91406 -6.70605 -14.9062c-12.1465 -27.8672 -23.1064 -56.2471 -34.9727 -84.2334c-18.0557 -42.5967 -41.4268 -113.572 -88.8271 -132.323c-109.604 -43.3564 -75.2842 247.162 -60.458 295.01
c8.08691 26.0986 43.2969 14.583 39.7227 -10.9502c-5.95703 -42.5645 -5.29883 -87.2852 -5.14746 -130.194c0.0644531 -18.875 0.306641 -37.9277 1.95605 -56.7432c0.921875 -10.4912 1.98438 -21.0527 4.6748 -31.2695
c1.04102 -4.66895 2.58301 -9.1709 4.35645 -13.5918c12.6914 7.16504 22.7949 31.6787 29.1025 43.5605c8.85254 16.6748 16.8096 33.8193 24.3955 51.1035c15.1982 34.623 28.6553 69.9844 44.2686 104.429c10.5996 23.3818 23.9375 67.0781 48.1816 79.5586
c30.6875 15.7959 44.2793 -20.0771 47.3418 -43.249c10.9824 -83.0742 10.8799 -166.936 26.2773 -249.557z" />
    <glyph glyph-name="u" unicode="&#xfb;" horiz-adv-x="328" 
d="M308.1 11.3174c6.58301 -35.3184 -47.0752 -50.5205 -54.2236 -14.9492c-9.04688 45.0166 -13.5322 90.5996 -16.1904 136.403c-1.30469 22.5244 -2.29688 45.0654 -3.49902 67.5957c-0.0810547 1.43359 -0.177734 2.86719 -0.25293 4.30664
c-2.25879 -4.95996 -4.52832 -9.91406 -6.70605 -14.9062c-12.1465 -27.8672 -23.1064 -56.2471 -34.9727 -84.2334c-18.0557 -42.5967 -41.4268 -113.572 -88.8271 -132.323c-109.604 -43.3564 -75.2842 247.162 -60.458 295.01
c8.08691 26.0986 43.2969 14.583 39.7227 -10.9502c-5.95703 -42.5645 -5.29883 -87.2852 -5.14746 -130.194c0.0644531 -18.875 0.306641 -37.9277 1.95605 -56.7432c0.921875 -10.4912 1.98438 -21.0527 4.6748 -31.2695
c1.04102 -4.66895 2.58301 -9.1709 4.35645 -13.5918c12.6914 7.16504 22.7949 31.6787 29.1025 43.5605c8.85254 16.6748 16.8096 33.8193 24.3955 51.1035c15.1982 34.623 28.6553 69.9844 44.2686 104.429c10.5996 23.3818 23.9375 67.0781 48.1816 79.5586
c30.6875 15.7959 44.2793 -20.0771 47.3418 -43.249c10.9824 -83.0742 10.8799 -166.936 26.2773 -249.557z" />
    <glyph glyph-name="u" unicode="&#xfa;" horiz-adv-x="328" 
d="M308.1 11.3174c6.58301 -35.3184 -47.0752 -50.5205 -54.2236 -14.9492c-9.04688 45.0166 -13.5322 90.5996 -16.1904 136.403c-1.30469 22.5244 -2.29688 45.0654 -3.49902 67.5957c-0.0810547 1.43359 -0.177734 2.86719 -0.25293 4.30664
c-2.25879 -4.95996 -4.52832 -9.91406 -6.70605 -14.9062c-12.1465 -27.8672 -23.1064 -56.2471 -34.9727 -84.2334c-18.0557 -42.5967 -41.4268 -113.572 -88.8271 -132.323c-109.604 -43.3564 -75.2842 247.162 -60.458 295.01
c8.08691 26.0986 43.2969 14.583 39.7227 -10.9502c-5.95703 -42.5645 -5.29883 -87.2852 -5.14746 -130.194c0.0644531 -18.875 0.306641 -37.9277 1.95605 -56.7432c0.921875 -10.4912 1.98438 -21.0527 4.6748 -31.2695
c1.04102 -4.66895 2.58301 -9.1709 4.35645 -13.5918c12.6914 7.16504 22.7949 31.6787 29.1025 43.5605c8.85254 16.6748 16.8096 33.8193 24.3955 51.1035c15.1982 34.623 28.6553 69.9844 44.2686 104.429c10.5996 23.3818 23.9375 67.0781 48.1816 79.5586
c30.6875 15.7959 44.2793 -20.0771 47.3418 -43.249c10.9824 -83.0742 10.8799 -166.936 26.2773 -249.557z" />
    <glyph glyph-name="v" unicode="v" horiz-adv-x="316" 
d="M255.362 281.624c12.2432 30.7139 62.4424 17.249 50.0859 -13.8203c-25.4629 -63.9619 -47.6748 -129.126 -66.1182 -195.466c-10.4971 -37.7549 -26.4609 -140.383 -81.8994 -135.654c-26.5518 2.26465 -42.0898 30.9463 -52.2959 52.2959
c-13.1709 27.5498 -23.2793 56.8086 -33.2373 85.6357c-21.7158 62.8672 -40.7256 126.694 -60.6406 190.149c-9.47754 30.1963 37.4375 42.7471 47.1523 12.998c16.5459 -50.6777 32.8926 -101.42 49.7188 -152.006c8.3623 -25.1338 16.999 -50.1924 26.4824 -74.9326
c4.63086 -12.0869 9.21875 -24.2656 14.874 -35.9219c2.44238 -5.1377 5.10547 -10.1572 7.99023 -15.0684c1.06738 -0.776367 1.90332 -1.49316 2.63086 -2.17773c0.0214844 0.0273438 0.0322266 0.0488281 0.0537109 0.0761719
c3.27246 6.44238 6.11914 13.0625 8.53418 19.877c4.43164 11.8711 8.03809 24.0342 11.5312 36.2021c7.25684 25.2852 13.9316 50.7158 21.5977 75.8818c15.6562 51.4053 33.6465 102.023 53.54 151.931z" />
    <glyph glyph-name="w" unicode="w" horiz-adv-x="423" 
d="M346.441 276.233c2.0752 34.709 55.6396 35.1094 54.3408 -0.00976562c-2.16699 -58.5488 -7.26758 -116.99 -15.3545 -175.021c-5.48828 -39.4209 -7.7207 -109.07 -47.1201 -132.366c-44.6777 -26.417 -76.2812 28.5039 -88.9512 63.0723
c-9.04102 24.6865 -14.3301 50.5859 -19.2793 76.3398c-2.36719 12.3242 -4.62109 24.6758 -7.12793 36.9736c-13.0791 -35.9062 -20.0342 -75.9414 -31.5986 -110.084c-11.3271 -33.4531 -34.5801 -106.402 -84.0771 -80.1201
c-42.1162 22.3633 -52.8232 94.9297 -61.708 136.453c-11.9521 55.8691 -20.4385 112.596 -29.2422 169.016c-4.00586 25.6572 30.3037 35.8467 39.2314 10.8154c15.8291 -44.3486 23.8242 -90.6221 33.5771 -136.588c4.86328 -22.9131 10.1309 -45.7725 16.708 -68.2646
c4.60449 -15.748 9.28906 -36.7256 18.6055 -52.3926c0.555664 0.744141 1.16504 1.49902 1.9248 2.31836c2.33398 5.03027 4.47461 10.1416 6.41016 15.333c4.03809 10.292 7.56445 20.7725 10.9502 31.2959c6.78711 21.1172 12.5771 42.542 19.0576 63.751
c9.09473 29.7705 20.6855 87.209 50.4619 102.968c42.2725 22.374 53.3027 -36.0781 59.1953 -63.2285c9.42969 -43.4316 13.6348 -91.9424 34.041 -132.037c2.07031 -4.10254 4.4375 -8.0332 6.99805 -11.8506c0.102539 0.194336 0.177734 0.345703 0.291016 0.550781
c5.66113 8.08691 6.93359 22.708 8.91797 32.1641c5.12695 24.3955 8.53418 49.3301 11.5967 74.0488c6.03809 48.791 9.21875 97.8027 12.1514 146.863z" />
    <glyph glyph-name="x" unicode="x" horiz-adv-x="279" 
d="M229.522 286.299c22.7461 22.0283 57.0322 -12.2109 34.7607 -34.752c-39.9277 -40.4023 -76.1787 -83.8398 -108.721 -129.913c22.3955 -34.0293 46.9473 -66.4365 77.2949 -94.5684c25.4307 -23.5654 -12.5781 -61.3262 -37.9707 -37.9717
c-27.668 25.4463 -50.3809 54.5371 -70.7383 85.3594c-19.5215 -31.0586 -37.4961 -63.1582 -53.8428 -96.2334c-15.3652 -31.0859 -61.7734 -3.7793 -46.4785 27.1719c20.4648 41.4102 43.7715 81.1924 69.6006 119.212c-26.3311 45.7988 -50.4619 93.1992 -79.5156 136.96
c-16.0986 24.25 21.6455 44.71 38.2988 22.3848c27.1016 -36.3369 49.9385 -75.7148 73.4277 -114.559c31.5605 41.4375 66.2852 80.5078 103.884 116.909z" />
    <glyph glyph-name="y" unicode="y" horiz-adv-x="295" 
d="M272.707 -234.2c2.13477 -36.0459 -52.9248 -35.3779 -55.7227 -0.000976562c-6.85254 86.6641 -5.13281 173.809 -4.3623 260.662c0.393555 44.3594 0.84082 88.7236 0.171875 133.083c-0.323242 21.2734 -0.873047 42.5469 -1.79492 63.8047
c-0.194336 4.50684 -0.0214844 10.2324 -0.0537109 16.3135c-5.10059 -11.9258 -9.4248 -24.1748 -13.4629 -36.499c-8.09766 -24.7188 -14.8203 -49.8584 -22.7725 -74.6201c-11.2305 -34.9619 -27.2207 -99.749 -69.0088 -110.105
c-52.0098 -12.8848 -65.8057 56.7275 -70.9648 92.7686c-7.39648 51.6641 -17.4297 108.86 -12.3623 160.978c2.93262 30.1641 50.1064 30.709 47.6377 0c-3.84375 -47.7881 5.62891 -100.439 13.166 -147.624c1.41797 -8.89551 2.78223 -17.8555 4.82031 -26.6328
c1.52539 -6.56641 11.9951 -26.6006 4.76562 -28.4873c11.958 3.11035 24.5088 50.2627 27.8516 59.7832c14.168 40.3594 24.1689 82.0771 40.418 121.719c10.3301 25.2041 28.2295 77.6992 65.1006 66.8252c35.3828 -10.4316 34.0723 -65.8164 35.7646 -94.417
c2.94336 -49.5938 3.96191 -99.29 4.38281 -148.965c0.868164 -102.979 0.333984 -205.726 6.42578 -308.585z" />
    <glyph glyph-name="y" unicode="&#xff;" horiz-adv-x="295" 
d="M272.707 -234.2c2.13477 -36.0459 -52.9248 -35.3779 -55.7227 -0.000976562c-6.85254 86.6641 -5.13281 173.809 -4.3623 260.662c0.393555 44.3594 0.84082 88.7236 0.171875 133.083c-0.323242 21.2734 -0.873047 42.5469 -1.79492 63.8047
c-0.194336 4.50684 -0.0214844 10.2324 -0.0537109 16.3135c-5.10059 -11.9258 -9.4248 -24.1748 -13.4629 -36.499c-8.09766 -24.7188 -14.8203 -49.8584 -22.7725 -74.6201c-11.2305 -34.9619 -27.2207 -99.749 -69.0088 -110.105
c-52.0098 -12.8848 -65.8057 56.7275 -70.9648 92.7686c-7.39648 51.6641 -17.4297 108.86 -12.3623 160.978c2.93262 30.1641 50.1064 30.709 47.6377 0c-3.84375 -47.7881 5.62891 -100.439 13.166 -147.624c1.41797 -8.89551 2.78223 -17.8555 4.82031 -26.6328
c1.52539 -6.56641 11.9951 -26.6006 4.76562 -28.4873c11.958 3.11035 24.5088 50.2627 27.8516 59.7832c14.168 40.3594 24.1689 82.0771 40.418 121.719c10.3301 25.2041 28.2295 77.6992 65.1006 66.8252c35.3828 -10.4316 34.0723 -65.8164 35.7646 -94.417
c2.94336 -49.5938 3.96191 -99.29 4.38281 -148.965c0.868164 -102.979 0.333984 -205.726 6.42578 -308.585z" />
    <glyph glyph-name="y" unicode="&#xfd;" horiz-adv-x="295" 
d="M272.707 -234.2c2.13477 -36.0459 -52.9248 -35.3779 -55.7227 -0.000976562c-6.85254 86.6641 -5.13281 173.809 -4.3623 260.662c0.393555 44.3594 0.84082 88.7236 0.171875 133.083c-0.323242 21.2734 -0.873047 42.5469 -1.79492 63.8047
c-0.194336 4.50684 -0.0214844 10.2324 -0.0537109 16.3135c-5.10059 -11.9258 -9.4248 -24.1748 -13.4629 -36.499c-8.09766 -24.7188 -14.8203 -49.8584 -22.7725 -74.6201c-11.2305 -34.9619 -27.2207 -99.749 -69.0088 -110.105
c-52.0098 -12.8848 -65.8057 56.7275 -70.9648 92.7686c-7.39648 51.6641 -17.4297 108.86 -12.3623 160.978c2.93262 30.1641 50.1064 30.709 47.6377 0c-3.84375 -47.7881 5.62891 -100.439 13.166 -147.624c1.41797 -8.89551 2.78223 -17.8555 4.82031 -26.6328
c1.52539 -6.56641 11.9951 -26.6006 4.76562 -28.4873c11.958 3.11035 24.5088 50.2627 27.8516 59.7832c14.168 40.3594 24.1689 82.0771 40.418 121.719c10.3301 25.2041 28.2295 77.6992 65.1006 66.8252c35.3828 -10.4316 34.0723 -65.8164 35.7646 -94.417
c2.94336 -49.5938 3.96191 -99.29 4.38281 -148.965c0.868164 -102.979 0.333984 -205.726 6.42578 -308.585z" />
    <glyph glyph-name="z" unicode="z" horiz-adv-x="260" 
d="M215.178 44.7598c33.3936 9.95801 47.5684 -42.2129 14.3418 -52.0254c-42.8066 -12.6533 -118.613 -36.1318 -156.729 -0.954102c-38.5039 35.5391 -15.8555 93.1016 6.41602 130.781c26.2607 44.4297 64.2637 80.292 92.4385 123.33
c0.900391 1.375 8.58789 11.5371 10.416 15.8984c-2.31836 -0.630859 -9.1709 1.67676 -9.45703 1.69336c-18.1357 1.0293 -34.0557 1.82227 -52.1699 -1.2832c-26.832 -4.60449 -56.3818 -10.2764 -80.2764 -23.7002c-20.7939 -11.6826 -45.4697 17.8506 -26.1855 33.9326
c38.6826 32.2559 106.597 45.4648 155.976 40.6123c21.8506 -2.14551 47.2168 -7.95215 58.4033 -28.8652c11.8066 -22.0605 -1.6875 -44.6719 -13.4463 -63.5732c-27.873 -44.7959 -66.6797 -81.9199 -92.4609 -128.074
c-9.58594 -17.166 -33.8955 -63.0186 1.14746 -64.1348c30.5576 -0.970703 62.582 7.70898 91.5869 16.3623z" />
    <glyph glyph-name="braceleft" unicode="{" horiz-adv-x="479" 
d="M397.016 -144.781c32.6064 9.08984 45.5723 -39.9336 13.8721 -50.3174c-105.205 -34.4932 -187.028 60.2852 -208.254 153.667c-13.3105 58.5762 -9.65527 118.624 -15.8066 177.966c-2.0752 19.9961 -5.52051 44.4297 -19.3223 60.1504
c-19.3926 22.0879 -51.8691 13.1758 -75.0029 2.66797c-32.8916 -14.9395 -59.9287 28.9131 -28.6807 49.0713c85.8018 55.3525 128.544 152.794 170.084 241.981c26.9082 57.7725 86.2012 213.989 176.655 153.742c20.5566 -13.6934 1.95117 -46.3916 -19.5166 -33.3877
c-38.8174 23.5117 -74.4268 -65.04 -86.1309 -89.3057c-20.3467 -42.1865 -37.874 -85.667 -58 -127.956c-22.4111 -47.1035 -48.8555 -92.1797 -82.6699 -130.878c15.6504 -4.23242 30.3525 -12.46 43.0703 -26.1318c33.1025 -35.5928 35.6953 -89.1875 38.0674 -134.991
c3.09961 -59.9238 1.36914 -124.166 29.1074 -179.157c22.751 -45.1084 69.9355 -81.7852 122.527 -67.1211z" />
    <glyph glyph-name="verticalbar" unicode="|" horiz-adv-x="175" 
d="M124.684 623.166c-17.6621 -265.201 -34.6973 -531.798 -7.75684 -797.005c3.60645 -35.5342 -52.2959 -35.4053 -55.6006 -0.000976562c-24.7891 265.595 -4.17285 531.918 16.8584 797.006c2.35059 29.6035 48.4941 29.9648 46.499 0z" />
    <glyph glyph-name="braceright" unicode="}" horiz-adv-x="431" 
d="M366.629 293.183c29.6035 -16.5781 7.75195 -55.623 -21.4629 -50.9277c-4.14551 0.668945 -8.14551 1.59668 -12.0654 2.66406c-12.9873 -5.41797 -33.9697 -40.7627 -37.1719 -46.9736c-9.82812 -19.042 -15.5537 -39.9004 -19.4512 -60.8936
c-9.24609 -49.7939 -7.41309 -101.097 -14.3574 -151.246c-9.24609 -66.7979 -36.7578 -208.744 -127.568 -206.286c-36.0137 0.975586 -36.0625 55.5244 0 55.9775c23.4307 0.296875 36.5312 36.0137 44.0576 53.9131c10.0654 23.9316 17.166 49.125 22.4385 74.5176
c11.0039 52.9961 9.95215 107.113 16.7988 160.61c5.90918 46.165 18.5791 91.8555 47.3037 129.309c5.14844 6.71191 10.9814 13.4023 17.3643 19.543c-39.9766 36.4561 -62.3291 96.6445 -77.4951 145.031c-18.0117 57.4492 -31.1504 223.554 -128.016 192.149
c-23.0371 -7.47266 -38.2295 28.4873 -16.5029 39.1455c36.4775 17.8887 75.4512 10.1143 107.141 -14.3135c33.873 -26.1094 49.9443 -66.7598 61.0723 -106.779c13.6025 -48.915 25.1719 -98.1963 46.0635 -144.723c14.9072 -33.1992 33.9766 -69.8164 68.3945 -83.3809
c7.7041 -0.625 15.5537 -2.91113 23.457 -7.33691z" />
    <glyph glyph-name="nonbreakingspace" unicode="&#xa0;" horiz-adv-x="419" 
 />
    <glyph glyph-name="exclamdown" unicode="&#xa1;" horiz-adv-x="197" 
d="M70.6514 317.223c3.18652 33.8623 56.2842 34.2617 53.3242 0c-6.91699 -80.0977 -13.1816 -160.249 -17.6074 -240.53c-4.28027 -77.6611 -9.7041 -155.365 -1.21875 -232.896c2.81445 -25.7109 -39.458 -30.709 -44.6768 -6.04395
c-16.125 76.1943 -9.69336 156.508 -6.32422 233.705c3.58008 82.0391 8.82031 164.002 16.5029 245.766zM122.104 493.921c12.2002 0 25.8613 -11.3047 24.4541 -24.4541c-1.27734 -11.8936 -2.71191 -23.7646 -4.18359 -35.6357
c-1.10547 -8.94434 -3.76855 -19.333 -4.09766 -28.6064c3.26172 -14.8203 -8.87891 -30.6279 -27.9697 -27.2314c-0.560547 0.102539 -1.12109 0.199219 -1.68164 0.301758c-8.11426 1.43945 -13.9688 9.07324 -16.373 16.373
c-3.73047 11.3271 -0.248047 25.0264 1.01367 36.6172c1.38574 12.7393 2.79297 25.4736 4.38867 38.1865c1.64941 13.1602 9.87109 24.4492 24.4492 24.4492z" />
    <glyph glyph-name="cent" unicode="&#xa2;" horiz-adv-x="394" 
d="M305.282 144.638c6.77637 24.1152 44.1533 13.8428 37.5332 -10.3535c-14.9873 -54.7324 -62.6299 -117.6 -119.286 -143.769c0.0429688 -12.6533 0.177734 -25.334 0.415039 -38.0518c0.598633 -31.9648 -44.8389 -30.0459 -48.3975 0
c-1.01367 8.5293 -1.78418 17.0908 -2.45312 25.6631c-69.0674 -1.41797 -110.148 67.0293 -119.313 128.641c-11.6611 78.3887 4.63086 159.991 35.5332 232.245c22.7461 53.1689 64.3232 126.112 125.028 143.623c2.90625 34.3691 5.08398 68.7979 5.86035 103.351
c0.663086 29.5117 46.2842 29.5439 45.8691 0c-0.479492 -33.9971 -2.32324 -67.8916 -4.87305 -101.728c58.7051 -14.8203 67.7412 -97.959 67.5146 -152.448c-0.145508 -34.3799 -51.3896 -33.9219 -53.0713 0c-1.08398 21.8887 1.32031 75.9365 -19.4902 93.873
c-5.1377 -52.2793 -11.5322 -104.45 -17.457 -156.664c-8.55566 -75.3965 -13.3535 -149.817 -14.7285 -224.853c9.36426 6.22656 18.0283 13.2188 25.5117 19.5c26.2715 22.0557 46.4238 47.583 55.8047 80.9707zM190.162 269.018
c6.00586 49.2334 12.3877 98.4355 17.7734 147.717c-12.3135 -10.5996 -22.9717 -24.3525 -29.4951 -32.9141c-39.3291 -51.6055 -62.0908 -118.608 -70.6309 -182.425c-7.0791 -52.8887 -11.0898 -154.379 55.6592 -173.055
c2.47461 -0.69043 4.95996 -1.09473 7.45117 -1.375c-1.0293 80.8369 9.5752 162.8 19.2422 242.052z" />
    <glyph glyph-name="sterling" unicode="&#xa3;" horiz-adv-x="342" 
d="M259.195 60.458c32.8545 8.76074 46.6895 -41.8809 14.0127 -50.8145c-44.8818 -12.2646 -89.8125 -24.3682 -134.625 -36.8975c-25.6406 -7.16504 -69.5098 -22.6006 -73.6123 18.7021c-1.86523 18.7666 6.15137 40.7363 10.0225 58.9912
c4.7334 22.3193 8.77148 44.7412 12.0605 67.3193c4.70117 32.2939 7.99512 64.7705 11.5693 97.21c-6.49609 -1.26172 -13.0029 -2.46387 -19.4883 -3.81738c-29.248 -6.0918 -41.7393 38.2568 -12.3945 44.9639c12.502 2.85742 25.0312 5.54785 37.582 8.09277
c7.91406 68.7812 16.5938 148.62 63.9453 200.851c19.4033 21.4033 48.3652 37.998 78.1299 32.79c34.6768 -6.07031 44.7207 -35.1504 44.0957 -66.7158c-0.496094 -24.8047 -36.957 -24.4756 -38.2891 0.000976562c-1.91895 35.2969 -36.2285 12.9443 -48.1592 -1.85449
c-12.0176 -14.9072 -19.166 -33.6152 -24.8164 -51.7031c-10.4268 -33.3662 -15.3008 -68.4414 -19.2148 -103.264c19.9854 3.28906 40.0137 6.30273 60.1396 8.80469c31.3984 3.90332 31.3447 -45.8418 0 -49.4053c-21.8936 -2.49121 -43.6797 -5.47266 -65.4014 -8.8584
c-3.55859 -34.7305 -6.98242 -69.4775 -11.4844 -104.101c-2.80859 -21.5811 -5.95215 -43.1133 -9.92578 -64.5107c-1.78418 -9.6123 -4.8623 -20.1738 -7.57422 -30.8105c4.15137 0.873047 7.65527 1.51953 8.91699 1.85352
c13.8447 3.63379 27.6729 7.34277 41.5068 11.0361c27.668 7.375 55.3359 14.7559 83.0039 22.1367z" />
    <glyph glyph-name="currency" unicode="&#xa4;" horiz-adv-x="523" 
d="M434.76 163.55c8.49707 22.7998 44.5098 13.7109 37.0479 -10.21c-22.999 -73.6172 -72.3232 -138.069 -141.191 -174.369c-32.0674 -16.9014 -70.1299 -27.6572 -105.777 -16.0068c-33.0381 10.7988 -55.9941 38.957 -68.3076 70.4902
c-11.084 28.3906 -16.0225 60.124 -16.5566 92.4395c-18.5293 -3.59082 -36.8652 -8.11426 -54.9209 -13.5537c-3.14355 -3.13281 -7.48926 -5.00391 -12.918 -4.50781c-6.4375 0.587891 -11.5107 1.98926 -16.1416 6.87402c-5.6875 6 -8.48047 17.1602 -3.14844 24.3896
c17.0791 23.166 60.4951 29.4199 89.3545 34.6768c1.56934 14.4971 3.88184 28.8271 6.79883 42.7637c-22.6328 -4.37793 -45.2764 -9.91992 -68.1729 -15.3115c-26.9346 -6.3457 -37.9434 33.5332 -11.418 41.4258c30.0723 8.94922 61.1582 17.1387 92.584 22.3145
c21.1016 64.4795 58.8408 136.227 118.63 171.475c29.6084 17.457 66.9971 24.4814 96.083 2.26367c28.2773 -21.5977 33.5449 -56.9746 35.8145 -90.3086c2.30762 -33.8516 -49.3408 -33.1074 -52.3115 0c-1.26172 14.0605 -1.9248 39.5508 -16.7773 47.5244
c-13.8506 7.43457 -33.9219 -7.55859 -44.3809 -15.748c-23.5117 -18.4004 -40.834 -43.6533 -55.4229 -69.3809c-7.35352 -12.9717 -13.8447 -26.418 -19.543 -40.2031c23.9697 0.124023 47.8799 -2.39355 71.4395 -8.58789
c28.3955 -7.4668 16.335 -50.6348 -12.0928 -43.8633c-25.4307 6.05957 -50.3223 7.52051 -74.9873 6.19434c-3.67188 -13.7852 -6.58301 -27.7646 -8.6582 -41.8682c22.5137 2.28027 45.1357 3.30957 67.8438 3.10449
c31.5176 -0.275391 31.4531 -49.5781 0.000976562 -48.8984c-23.8887 0.511719 -47.8691 -0.367188 -71.7256 -2.64746c-0.0703125 -5.15918 -0.0761719 -10.3135 0.0693359 -15.4727c0.868164 -30.833 3.17578 -69.0947 25.415 -92.9023
c26.4336 -28.3037 66.5127 -15.1709 95.8955 1.02441c53.7617 29.6416 96.0674 79.4355 117.476 136.88z" />
    <glyph glyph-name="yen" unicode="&#xa5;" horiz-adv-x="445" 
d="M371.227 208.26c31.2959 -1.20215 31.4727 -49.2471 -0.00195312 -48.7783c-18.3037 0.269531 -36.4834 0 -54.5977 -0.932617c-0.776367 -3.06738 -1.50977 -6.14551 -2.31348 -9.20801c10.7881 0.992188 21.5166 1.81738 32.0459 2.51855
c32.0029 2.12988 32.0732 -48.3857 0.000976562 -49.9111c-15.9092 -0.754883 -31.5166 -2.43652 -47.0059 -4.57129c-16.3682 -52.3115 -36.3486 -103.528 -59.6709 -153.004c-15.5322 -32.9512 -63.9346 -4.19922 -48.7686 28.5098
c17.3594 37.4424 32.9131 75.623 46.6123 114.435c-7.7793 -1.34277 -15.5801 -2.66895 -23.4463 -3.91406c-28.6279 -4.53418 -39.6797 33.4795 -12.0283 43.6201c17.0312 6.24805 34.9678 10.8574 53.2607 14.3564c1.14844 3.81738 2.15625 7.68262 3.26172 11.5156
c-7.01367 -1.0293 -14.0273 -2.15039 -21.041 -3.46582c-29.1562 -5.47754 -41.7881 38.5527 -12.3623 44.8389c15.4297 3.29395 30.9512 6.04395 46.5322 8.28711c3.46094 14.4805 6.73926 29.0156 9.60156 43.6641c9.4082 48.1006 15.3926 97.5928 14.3301 146.681
c-0.237305 10.9492 1.48242 31.1504 -4.69043 40.5146c-6.78711 10.2969 4.43164 11.7852 -10.8799 3.39062c-15.2139 -8.33984 -28.999 -30.1963 -38.876 -44.1055c-28.4385 -40.041 -86.4756 -170.936 -152.993 -130.323
c-29.6191 18.0879 -35.291 59.9727 -37.582 91.2207c-3.06738 41.8955 5.54785 82.3457 21.8838 120.727c10.8848 25.5654 54.6182 6.79883 44.8057 -18.8906c-15.667 -41.0117 -24.6006 -91.7109 -9.19238 -134.447c1.82227 -5.05664 4.44238 -12.6904 7.34277 -12.1895
c6.77148 1.16406 17.7539 18.2656 22.0186 23.6299c12.2383 15.3867 22.8213 32.0459 33.5176 48.5215c23.8672 36.7412 104.979 165.716 156.233 94.8096c23.085 -31.9375 20.3242 -85.6777 18.9922 -122.812c-1.69824 -47.4434 -8.09766 -94.8867 -17.4355 -141.408
c-0.242188 -1.19141 -0.533203 -2.36621 -0.775391 -3.55762c14.3789 0.668945 28.7842 0.835938 43.2217 0.280273z" />
    <glyph glyph-name="section" unicode="&#xa7;" horiz-adv-x="460" 
d="M407.833 122.059c-3.73047 -20.1738 -29.1064 -59.7666 -55.9121 -75.7676c15.1553 -23.916 23.3936 -51.1846 18.7246 -82.0977c-10.4053 -68.9492 -83.3926 -112.823 -147.263 -122.14c-68.1943 -9.94141 -137.989 19.791 -170.094 82.3516
c-15.7529 30.6982 29.3018 57.4766 46.4785 27.1719c36.7256 -64.7871 120.737 -69.7471 178.871 -30.8926c27.0967 18.1094 46.5215 46.7422 35.626 79.9473c-10.3516 31.5332 -38.5156 53.8369 -64.7764 71.8975c-44.791 30.8115 -116.106 67.9736 -110.451 132.297
c3.23438 36.8008 31.7969 74.8311 66.9912 94.6543c-17.6514 17.9316 -32.2344 38.499 -40.8008 64.0156c-42.3643 126.226 74.1406 238.692 196.732 231.808c32.2451 -1.81152 32.6387 -49.9932 0 -50.4189c-67.5098 -0.883789 -136.021 -40.0518 -146.615 -111.6
c-11.0684 -74.75 49.125 -112.828 101.695 -151.494c50.8984 -37.4316 103.598 -90.4492 90.793 -159.732zM353.134 109.336c8.02734 15.5488 7.87598 32.8652 2.59277 49.3027c-10.6641 33.1396 -38.9463 56.4678 -66.2803 75.9248
c-13.9414 9.92578 -28.2607 19.6895 -42.1113 29.9277c-28.541 -12.9824 -61.3789 -42.4561 -55.1084 -71.4336c6.66895 -30.8271 53.3516 -53.0771 77.0889 -69.0029c17.7861 -11.9307 36.1055 -25.6572 52.2686 -41.2812
c2.06445 0.0107422 4.13477 -0.291016 6.15625 -0.911133c10.0547 4.4043 21.5547 20.0391 25.3936 27.4736z" />
    <glyph glyph-name="copyright" unicode="&#xa9;" horiz-adv-x="728" 
d="M637.696 536.599c79.8877 -138.469 31.3564 -305.021 -51.2158 -430.189c-39.459 -59.8105 -88.751 -114.915 -150.255 -152.643c-59.9404 -36.7627 -141.731 -62.3604 -209.117 -31.5654c-70.3721 32.1641 -101.334 108.052 -110.888 180.3
c-11.3213 85.6182 -3.61719 173.092 19.3711 256.182c9.74707 35.2373 63.6924 20.3145 54.7051 -15.085c-19.5 -76.8096 -27.1982 -158.374 -16.1084 -237.199c9.18652 -65.3154 43.2539 -142.265 120.188 -141.062c118.09 1.84375 210.652 109.642 265.325 203.04
c61.3418 104.79 96.8545 238.478 30.9141 349.796c-29.248 49.373 -75.5 85.4297 -132.669 95.377c-63.665 11.084 -130.403 -9.51562 -184.85 -41.9229c-48.5752 -28.9131 -90.751 -69.0029 -122.495 -115.762c-17.457 -25.7109 -32.1162 -53.417 -43.001 -82.5352
c-9.59082 -25.6357 -31.1826 -74.7236 -2.40918 -94.6016c20.5137 -14.168 1.25586 -47.8203 -19.7051 -33.7109c-70.8037 47.6533 -19.2471 155.651 13.6016 212.313c39.0596 67.3691 96.6924 124.797 165.14 162.164c66 36.0303 144.81 54.4199 219.117 36.834
c66.1992 -15.667 120.716 -61.4336 154.352 -119.729zM363.077 379.686c-24.9775 -27.2959 -44.2432 -60.625 -58.2334 -94.7734c-12.0928 -29.501 -33.8896 -94.3418 -1.52637 -119.664c29.6953 -23.2305 88.1855 19.4199 113.778 33.9766
c26.9512 15.3271 48.5059 -23.6299 23.916 -40.9141c-45.6152 -32.0615 -125.104 -78.7178 -176.412 -31.7871c-50.5381 46.2246 -34.127 125.239 -10.6533 180.408c24.04 56.5 59.7412 109.685 111.001 144.868c46.4941 31.916 122.867 44.8926 141.903 -23.625
c6.71777 -24.1904 -28.417 -32.8271 -36.9189 -10.1787c-10.249 27.3125 -49.9502 7.78516 -64.8193 -1.86523c-15.5967 -10.1143 -29.5117 -22.7676 -42.0352 -36.4453z" />
    <glyph glyph-name="softhyphen" unicode="&#xad;" 
 />
    <glyph glyph-name="registered" unicode="&#xae;" horiz-adv-x="810" 
d="M750.249 537.239c39.3076 -162.875 -49.2959 -331.052 -151.74 -452.339c-49.4111 -58.4951 -110.338 -110.203 -180.672 -141.597c-68.1621 -30.4229 -154.477 -43.2275 -219.102 2.7334c-68.0537 48.4023 -84.8262 134.253 -84.2871 212.819
c0.625 91.209 17.4082 182.127 48.9043 267.654c12.3623 33.5771 66.0645 19.5332 54.2197 -14.9492c-28.5146 -83.0361 -45.0986 -169.7 -45.1094 -257.653c-0.0107422 -73.3262 19.7803 -165.091 105.388 -179.027c63.293 -10.3027 127.621 21.2041 178.385 55.8428
c53.0127 36.1807 98.1641 84.3516 135.482 136.302c78.8467 109.761 149.17 254.883 98.5303 391.028c-51.5137 138.485 -216.174 176.144 -344.744 133.272c-119.562 -39.8682 -251.184 -161.619 -247.674 -296.848c0.803711 -30.7949 -46.9902 -30.6816 -47.7607 0
c-2.24316 89.4844 49.9443 174.661 111.356 236.256c62.3877 62.5762 144.265 108.159 231.899 122.349c155.538 25.1826 318.22 -55.4648 356.924 -215.844zM432.604 328.908c-14.0068 -10.5781 -27.8164 -21.4404 -40.9385 -33.1123
c-4.66309 -4.16211 -9.20215 -8.45312 -13.6768 -12.8203c12.373 -0.431641 26.1367 -2.60938 35.6904 -2.27539c19.8076 0.69043 39.502 2.50684 59.1533 5.00293c33.9492 4.31348 33.4697 -48.8984 0.000976562 -53.1953
c-35.96 -4.61523 -72.3838 -6.90625 -108.624 -4.66895c-9.55371 0.587891 -19.6572 2.04883 -28.6123 5.20312c-2.67383 -15.1816 -5.16504 -30.3955 -7.29492 -45.6582c-2.20996 -15.877 -7.48242 -36.9297 -0.743164 -52.4727
c11.8662 -27.3604 -27.8564 -51.5293 -40.6982 -23.791c-14.2979 30.876 -9.20898 61.6221 -4.68066 94.3574c5.25684 38.0195 12.0879 75.7852 20.083 113.313c11.3809 53.4277 24.9775 106.392 39.5449 159.069c-13.6611 -5.42383 -27.0156 -11.5215 -39.9707 -18.1475
c-2.62012 -7.82227 -9.38574 -14.3184 -18.001 -13.3154c-9.12207 1.0625 -15.0361 2.49121 -21.3867 9.66113c-9.52051 10.7451 -7.6875 25.8564 4.35645 33.8027c27.835 18.3682 58.4951 32.7578 90.5195 42.9043c1.3584 4.72266 2.71191 9.45605 4.08105 14.1738
c7.72559 26.6494 44.2783 20.5791 48.7803 -1.51953c16.1572 2.66895 32.46 4.30273 48.7363 4.82031c52.0098 1.64941 152.028 -19.8613 113.007 -93.4463c-28.9512 -54.6025 -91.4844 -91.7646 -139.326 -127.886zM357.899 335.524
c22.0498 18.9561 45.6641 36.0283 69.1318 53.1777c25.5488 18.6641 51.1465 37.3721 73.8926 59.4658c6.98145 6.77637 27.9531 23.3926 28.4492 33.501c0.814453 16.5947 -33.123 19.0049 -46.0889 20.1318c-28.2451 2.46387 -56.5059 -0.0966797 -84.1143 -6.17773
c-14.6641 -52.9746 -29.3496 -105.928 -42.0625 -159.425c-0.129883 -0.560547 -0.253906 -1.12109 -0.388672 -1.68164c0.387695 0.333984 0.797852 0.678711 1.18066 1.00781z" />
    <glyph glyph-name="mu" unicode="&#xb5;" horiz-adv-x="484" 
d="M427.295 424.229c-2.75 -51.5352 -2.14355 -103.081 0.589844 -154.61c1.80078 -34.0186 -50.5371 -33.6143 -52.6885 0c-2.84082 44.3975 -3.36426 88.832 -1.53711 133.288c0.447266 10.8691 1.05078 21.7217 1.7627 32.5693
c-17.1816 -32.0723 -34.709 -63.9512 -53.2764 -95.1934c-22.4766 -37.8086 -62.749 -110.003 -117.578 -91.1064c-51.0557 17.5967 -60.1348 96.7617 -65.0889 141.709c-2.37207 21.5107 -3.29395 43.0918 -3.58496 64.7002
c-3.68262 -16.9775 -7.0625 -34.0195 -10.0762 -51.1318c-10.626 -60.3555 -16.707 -121.428 -19.6289 -182.629c-2.9707 -62.2256 -2.22168 -124.597 1.14746 -186.79c1.63867 -30.2559 4.10254 -60.4629 6.85742 -90.6436
c1.37988 -15.0576 2.9707 -30.0889 4.59375 -45.125c1.47168 -13.6182 0.161133 -32.2285 7.51465 -43.9434c15.4189 -24.5684 -21.166 -43.6211 -37.75 -22.0664c-18.4385 23.9697 -18.0176 65.5469 -22.0283 94.5137c-4.93262 35.6367 -8.78223 71.3916 -11.5479 107.265
c-5.56934 72.1729 -6.52344 144.712 -2.55566 216.998c3.90332 71.0732 13.0684 142.168 27.5439 211.866c7.22461 34.7793 14.6807 70.5771 26.6602 104.078c8.78809 24.5791 22.3418 45.0117 48.5488 52.3281c17.5645 4.90039 34.2178 -8.78223 34.708 -26.4443
c1.43945 -51.7344 -2.08594 -103.426 -0.652344 -155.149c0.727539 -26.2881 2.57129 -52.5869 8.0166 -78.3623c2.60938 -12.3564 8.24902 -54.2412 22.1689 -59.6865c24.1367 -9.44043 72.1514 91.3115 81.8662 108.812c26.7246 48.1113 52.3867 96.832 78.4639 145.294
c8.56152 15.915 37.2051 18.1631 45.0762 0c17.6562 -40.7422 4.76562 -87.6406 2.47461 -130.539z" />
    <glyph glyph-name="paragraph" unicode="&#xb6;" horiz-adv-x="497" 
d="M443.383 -198.473c16.3516 -28.2393 -25.4893 -51.8848 -43.3184 -25.333c-16.7236 24.9287 -19.9424 53.1523 -22.7402 82.3838c-3.52637 36.8652 -6.23828 73.8008 -8.50293 110.764c-4.31348 70.3828 -6.80957 140.873 -7.19727 211.386
c-0.339844 61.5732 0.706055 123.201 3.18066 184.764c-23.916 -15.0684 -48.4248 -29.9268 -73.5908 -43.4053c-2.72266 -37.2539 -5.0459 -74.54 -6.70605 -111.891c-2.88477 -64.8623 -3.88184 -129.763 -2.9707 -194.685
c0.46875 -33.3076 1.58496 -66.6045 3.32617 -99.874c1.50977 -28.8271 0.701172 -58.4688 10.373 -85.9697c8.81445 -25.0586 -28.7568 -38.9092 -41.5723 -17.5273c-15.0254 25.0693 -16.6533 53.999 -19.2246 82.4863
c-2.99707 33.2051 -4.81348 66.5449 -6.20996 99.8467c-2.78711 66.6035 -2.625 133.304 -0.619141 199.929c1.00293 33.21 2.50195 66.415 4.4375 99.6094c-20.3037 -8.25977 -41.0117 -15.1553 -62.1621 -20.126c-33.8086 -7.95215 -72.1514 -7.16504 -97.7764 19.5596
c-24.498 25.5488 -27.1348 64.7002 -15.2529 96.5459c26.2285 70.2754 101.717 122.14 172.698 138.566c7.52637 1.74121 15.4619 3.14844 23.6562 4.16211c2.56055 22.0176 5.22363 44.0244 8.08594 65.9883c4.5498 34.9082 59.6592 36.0293 55.8477 -0.000976562
c-2.3125 -21.9102 -4.59863 -43.8203 -6.85742 -65.7305c22.6328 -2.71191 44.6943 -9.0791 63.4395 -20.1152c2.77148 33.6201 6.00586 67.1973 9.83887 100.704c3.97363 34.7197 58.4795 35.6416 55.2178 0c-12.5293 -136.943 -20.9395 -274.124 -21.3604 -411.682
c-0.209961 -68.7227 1.16504 -137.478 4.27539 -206.13c1.51465 -33.4473 3.52051 -66.8623 5.7959 -100.267c2.09766 -30.7676 -0.015625 -66.4902 15.8887 -93.959zM236.073 354.305c3.05176 41.1299 6.7832 82.2119 11.0586 123.224
c-1.11035 -0.242188 -2.18848 -0.425781 -3.30957 -0.69043c-51.3574 -12.1787 -103.265 -45.5723 -129.666 -92.2549c-13.8174 -24.4336 -16.125 -59.7734 19.8242 -61.8975c27.8242 -1.64453 60.2744 13.3486 85.2031 24.002
c5.6875 2.43164 11.2939 5.01367 16.8896 7.61719zM367.928 429.233c0.500977 8.72852 0.964844 17.4561 1.54199 26.1738c-21.4463 11.8281 -42.3643 20.3896 -64.5654 24.0234c-3.06738 -31.1826 -5.96777 -62.3818 -8.63086 -93.5977
c24.2119 13.9043 47.9492 28.6768 71.6543 43.4004z" />
    <glyph glyph-name="questiondown" unicode="&#xbf;" horiz-adv-x="481" 
d="M387.617 102.747c5.09473 23.9912 46.3027 18.6094 43.0625 -5.82422c-10.54 -79.4189 -66.7383 -146.891 -138.242 -181.163c-66.9268 -32.0723 -167.382 -41.5342 -219.989 22.6436c-58.3008 71.1211 10.5244 164.924 52.9805 224.276
c50.6943 70.8623 107.497 137.358 146.18 216.033c15.3223 31.167 61.5039 3.83301 46.4785 -27.167c-30.2773 -62.4736 -72.6631 -117.119 -114.483 -172.137c-20.0342 -26.3574 -39.9385 -52.8613 -58.1504 -80.5234
c-17.7754 -26.999 -41.0605 -58.8018 -42.7207 -92.1572c-4.03809 -81.1816 115.869 -69.1484 163.296 -47.9443c60.5488 27.0752 107.68 78.54 121.589 143.963zM324.321 409.924c-8.59863 -6.10254 -21.501 -4.68457 -28.9248 2.74414
c-8.33496 8.33984 -7.84961 19.0635 -5.49316 29.6084c4.27539 19.1064 12.998 37.5342 22.4277 54.5869c15.3486 27.7598 58.4355 2.66309 42.5527 -24.8701c-7.7793 -13.4893 -16.4805 -29.0215 -21.2305 -44.3486c-0.226562 -6.70703 -3.4668 -13.5645 -9.33203 -17.7207
z" />
    <glyph glyph-name="Agrave" unicode="&#xc0;" horiz-adv-x="917" 
d="M887.328 120.943c-0.177734 -155.263 1.1123 -310.737 -3.06055 -465.951c-0.938477 -34.9727 -53.7617 -34.9941 -54.333 0.000976562c-2.5127 153.527 0.56543 307.216 1.80566 460.748c0.151367 18.5029 0.291992 37.0547 0.362305 55.6279
c-130.204 -2.91113 -260.015 -4.91113 -389.701 -17.4131c-12.9336 -61.2012 -21.1934 -123.292 -24.6602 -185.761c-1.86523 -33.6201 -2.37695 -67.3047 -1.51465 -100.962c0.787109 -30.7568 -0.916992 -64.9697 13.8389 -92.8691
c13.6504 -25.8135 -23.9102 -47.8799 -39.167 -22.8965c-20.4277 33.4473 -21.3281 72.6094 -22.6602 110.72c-1.41211 40.375 -0.87793 80.8096 1.62402 121.131c3.43457 55.4219 10.5781 110.683 21.1934 165.236c-59.3525 -6.98145 -118.451 -16.082 -177.06 -27.8291
c-66.2314 -13.2734 -130.441 -32.8271 -195.972 -48.6719c-26.3418 -6.36719 -34.9033 29.9971 -10.918 39.5986c65.0459 26.0449 136.151 41.2217 204.68 54.9697c62.6895 12.5781 125.95 22.1748 189.443 29.6738c2.16211 9.21875 4.40527 18.416 6.77734 27.5811
c31.7441 122.754 79.958 246.855 163.501 344.044c36.2998 42.2354 89.8027 97.167 148.88 101.027c62.5928 4.08691 104.326 -48.6289 122.985 -102.25c23.8672 -68.5986 31.6357 -145.133 37.4639 -217.149c6.15137 -76.0488 6.57715 -152.356 6.49121 -228.605z
M453.382 201.978c125.59 12.7822 252.581 18.6592 378.655 17.6777c-0.716797 99.8027 -5.82227 199.864 -28.0615 297.192c-12.3135 53.9014 -44.8818 128.517 -112.062 90.5459c-47.2812 -26.7188 -86.8428 -72.7812 -117.18 -117.011
c-59.0879 -86.1416 -96.2393 -186.979 -121.352 -288.405zM871.555 899.525c28.6816 7.68262 40.6445 -36.2295 12.2275 -44.3486c-87.085 -24.8809 -169.927 -59.541 -247.793 -105.911c-25.0371 -14.9072 -47.5615 23.9316 -22.7676 38.9521
c80.54 48.7852 167.312 86.9336 258.333 111.308z" />
    <glyph glyph-name="AE" unicode="&#xc6;" horiz-adv-x="1366" 
d="M1411.27 -69.6592c33.2695 2.47461 33.1084 -49.5176 0.00585938 -51.8145c-112.898 -7.81152 -224.901 -24.8369 -334.937 -51.3457c-36.7842 -8.86816 -73.2881 -18.8525 -109.518 -29.7588c0.425781 -3.38574 0.835938 -6.77637 1.26758 -10.1621
c3.95703 -30.9082 -49.8906 -37.7979 -54.2305 -7.33691c-0.0429688 0.269531 -0.0751953 0.544922 -0.113281 0.814453c-0.436523 -0.145508 -0.878906 -0.275391 -1.31543 -0.420898c-8.65332 -2.87305 -17.2744 -5.83789 -25.9004 -8.78711
c-0.46875 -38.8604 -1.16992 -77.7041 -2.21582 -116.537c-0.938477 -34.9727 -53.7617 -34.9941 -54.333 0.000976562c-0.522461 32.0078 -0.764648 64.0264 -0.867188 96.0449c-11.5371 -4.33496 -23.0371 -8.77246 -34.542 -13.1826
c-6.5127 -2.49609 -19.9424 -5.0625 -28.0674 -9.10547c-2.38867 -4.26953 -6.05469 -7.86523 -10.7393 -9.63379c-0.776367 -0.296875 -1.55273 -0.587891 -2.3291 -0.878906c-6.18945 -2.33984 -15.2471 0.226562 -19.5381 5.16504
c-0.614258 0.706055 -1.23438 1.41797 -1.84863 2.12402c-6.44824 7.41797 -7.71484 16.4375 -3.2666 25.3281c9.45605 18.9072 42.1865 26.293 60.1553 33.8086c13.3057 5.56348 26.6973 10.9336 40.1377 16.1846c0.194336 104.974 1.86523 209.974 2.71191 314.898
c0.264648 33.167 0.53418 66.4795 0.334961 99.8242c-129.719 -13.9365 -259.211 -31.291 -387.89 -53.0664c-0.0644531 -0.296875 -0.134766 -0.587891 -0.199219 -0.884766c-13.8828 -63.6758 -22.6387 -128.35 -26.251 -193.422
c-1.86523 -33.6201 -2.37695 -67.3047 -1.51465 -100.962c0.787109 -30.7568 -0.916992 -64.9697 13.8389 -92.8691c13.6504 -25.8135 -23.9102 -47.8799 -39.167 -22.8965c-20.4277 33.4473 -21.3281 72.6094 -22.6602 110.72
c-1.41211 40.375 -0.87793 80.8096 1.62402 121.131c3.54199 57.0664 10.998 113.96 22.1416 170.088c-125.697 -22.4922 -250.543 -49.2871 -373.981 -81.3545c-26.1152 -6.78223 -35.1299 30.3311 -10.918 39.5986c72.8301 27.8887 152.001 42.6826 228.142 58.3604
c55.541 11.4404 111.33 21.792 167.248 31.4424c1.79004 7.48828 3.58496 14.9766 5.50977 22.4277c31.7441 122.754 79.958 246.855 163.501 344.044c36.3047 42.2354 89.8018 97.167 148.885 101.021c26.2451 1.70898 48.8076 -6.58789 67.5586 -20.7295
c82.0332 45.6963 174.795 70.7656 267.762 80.8311c99.5498 10.7822 223.564 17.791 312.677 -36.2129c26.3799 -15.9902 3.31055 -52.2305 -23.5977 -40.3701c-92.2441 40.6553 -194.517 39.6201 -293.327 28.9727c-43.874 -4.72852 -85.8613 -14.3193 -127.088 -26.6494
c-13.2734 -68.2588 -7.35938 -140.96 -6.125 -210.049c1.01855 -57.1582 3.05664 -114.3 5.7627 -171.404c105.571 11.71 211.763 20.6865 317.469 20.4707c31.1396 -0.0644531 31.0215 -47.7012 0 -48.2676c-77.5859 -1.41211 -155.085 -6.41016 -232.391 -12.9658
c-27.5498 -2.33398 -55.1045 -4.8623 -82.6543 -7.47754c6.83105 -126.613 19.0312 -252.683 34.2344 -378.498c29.1074 8.88477 58.4199 17.085 87.8672 24.665c118.855 30.5898 240.326 49.9824 362.691 59.0771zM776.915 255.818
c18.1465 2.23242 36.3271 4.46191 54.5391 6.68359c-1.91406 85.5322 -8.37793 170.946 -27.4365 254.349c-12.3135 53.9014 -44.8818 128.517 -112.062 90.5459c-47.2812 -26.7188 -86.8428 -72.7812 -117.18 -117.011c-57.4492 -83.7637 -94.1475 -181.421 -119.223 -280
c106.796 17.457 214.071 32.2451 321.362 45.4326zM868.233 463.535c0.226562 58.3984 -1.08789 118.818 10.4229 176.467c-20.4707 -7.0625 -40.8604 -14.6104 -61.2988 -22.3955c11.1543 -15.5264 19.877 -33.1611 26.0498 -50.9092
c11.4834 -33.0107 19.2197 -67.8652 24.8262 -103.162zM886.99 -177.707c6.71191 2.36719 13.4355 4.68555 20.1689 6.97168c-7.82812 60.0752 -14.3838 120.328 -19.7646 180.688c0.0537109 -62.5498 0.0595703 -125.11 -0.404297 -187.66z" />
    <glyph glyph-name="Ccedilla" unicode="&#xc7;" horiz-adv-x="424" 
d="M457.859 -102.201c12.3945 21.5869 44.9805 2.36816 33.2764 -19.4609c-42.2461 -78.7666 -120.851 -184.446 -215.376 -210.061c-0.431641 -69.7363 4.57715 -139.396 14.4482 -208.863c3.93066 -27.6406 -37.8682 -40.04 -42.6445 -11.7578
c-12.001 71.0566 -17.3115 142.981 -16.6377 214.9c-20.4004 0.344727 -41.335 4.75977 -62.6416 14.248c-111.108 49.4756 -141.413 198.431 -151.521 306.331c-12.2812 131.094 5.74707 266.398 50.4463 390.166c20.8584 57.7617 46.0088 116.764 82.1299 166.773
c32.0137 44.3164 80.0332 92.2881 138.41 94.3691c61.708 2.19434 91.376 -54.5107 105.646 -105.997c18.4111 -66.4092 19.7051 -136.544 19.3545 -204.98c-0.172852 -33.5283 -51.0176 -33.3447 -51.9346 0c-1.75195 63.9297 -2.02734 128.593 -19.6191 190.598
c-5.78516 20.3955 -14.0713 52.085 -35.3018 62.2207c-25.8398 12.3408 -57.249 -10.9814 -75.5576 -27.4785c-37.8682 -34.127 -61.8535 -81.3379 -83.0195 -126.938c-21.5977 -46.5371 -38.5264 -95.333 -51.3086 -145.003
c-26.2285 -101.905 -33.8301 -208.312 -22.2393 -312.93c9.26758 -83.6777 37.8301 -227.915 138.048 -248.121c6.90039 -1.39062 13.7637 -2.06445 20.5566 -2.12402c1.41797 29.2695 3.80664 58.501 7.13281 87.6357c3.16504 27.7217 46.9209 28.0557 43.8477 0
c-2.90039 -26.4766 -4.92188 -52.958 -6.16699 -79.4287c30.876 11.1709 59.1367 32.2666 82.2979 53.8262c38.1055 35.4688 72.4316 76.8955 98.374 122.074z" />
    <glyph glyph-name="Egrave" unicode="&#xc8;" horiz-adv-x="700" 
d="M738.989 -165.829c33.2695 2.47461 33.1025 -49.5176 0 -51.8086c-112.898 -7.80664 -224.901 -24.832 -334.937 -51.3408c-36.7842 -8.86816 -73.2881 -18.8525 -109.518 -29.7588c0.425781 -3.39062 0.835938 -6.78125 1.26758 -10.167
c3.95703 -30.9082 -49.8906 -37.7979 -54.2305 -7.33691c-0.0429688 0.275391 -0.0751953 0.550781 -0.113281 0.820312c-0.436523 -0.145508 -0.878906 -0.275391 -1.31543 -0.420898c-25.3711 -8.42676 -50.6455 -17.1387 -75.7207 -26.4121
c-14.0928 -5.21289 -28.0996 -10.6689 -42.1328 -16.0498c-6.5127 -2.49609 -19.9424 -5.0625 -28.0674 -9.10547c-2.38867 -4.26953 -6.05469 -7.86035 -10.7393 -9.63379c-0.776367 -0.291016 -1.55273 -0.582031 -2.3291 -0.878906
c-6.19434 -2.33984 -15.252 0.231445 -19.543 5.16406c-0.614258 0.711914 -1.23438 1.42383 -1.84863 2.12988c-6.44824 7.41797 -7.71484 16.4375 -3.2666 25.3281c9.45605 18.9072 42.1865 26.293 60.1553 33.8086c28.6973 12.001 57.7344 23.2686 87.0039 33.8086
c10.3564 3.73047 20.7939 7.25098 31.2256 10.7881c-13.8613 106.396 -23.6406 213.349 -30.1699 320.462c-12.583 -4.11914 -25.1396 -8.30859 -37.6475 -12.6543c-14.1357 -4.91113 -36.4609 -8.16699 -46.7578 -19.499
c-15.8125 -17.3926 -40.3643 4.85156 -30.8594 23.8125c13.8447 27.6084 58.5547 35.0752 85.3223 44.585c9.09473 3.22949 18.2061 6.39453 27.3438 9.50488c-0.635742 12.1953 -1.30469 24.3848 -1.86035 36.5801c-3.48242 76.1572 -4.66895 152.4 -4.30273 228.638
c0.280273 58.4463 -1.21289 119.012 9.95801 176.854c-10.3135 -3.49316 -20.584 -7.09473 -30.7842 -10.9062c-28.1797 -10.5293 -55.6855 -22.5791 -82.8086 -35.5771c-22.1963 -10.6318 -47.082 -21.2578 -60.1455 -43.2168
c-13.0146 -21.8887 -42.9736 -2.71191 -33.2744 19.4463c22.6162 51.6807 93.6191 74.6201 141.72 94.6973c59.126 24.6758 120.517 43.4863 183.449 55.6162c115.917 22.3525 265.654 38.0303 372.078 -24.7783c26.4551 -15.6133 3.26758 -52.5869 -23.5967 -40.3701
c-103.744 47.1631 -226.174 40.3164 -335.929 19.625c-28.6494 -5.40234 -57.0127 -12.2168 -85.0361 -20.2441c-12.5459 -67.4072 -6.79297 -139.014 -5.57422 -207.11c1.29883 -72.7012 4.20508 -145.381 8.0918 -217.99
c0.25293 -4.69043 0.576172 -9.375 0.84082 -14.0703c10.5781 3.2998 21.1777 6.54004 31.8096 9.67773c76.9014 22.7021 155.172 40.5469 234.105 54.5215c30.6006 5.41797 43.4102 -41.5938 12.8633 -46.667c-70.7275 -11.7529 -140.852 -26.6973 -210.118 -45.2266
c-22.0342 -5.89844 -43.9766 -12.125 -65.833 -18.6484c7.12695 -106.876 17.8125 -213.401 30.665 -319.738c29.1074 8.88477 58.4199 17.085 87.8672 24.665c118.855 30.5898 240.326 49.9873 362.691 59.0771zM169.063 693.409
c-22.5303 -12.0283 -42.5303 22.1572 -20.0273 34.2607c75.5527 40.6289 154.292 75.1113 236.864 98.7305c26.1689 7.4834 36.9785 -32.6543 11.1865 -40.5742c-78.7178 -24.1689 -155.301 -53.584 -228.023 -92.417z" />
    <glyph glyph-name="Igrave" unicode="&#xcc;" horiz-adv-x="428" 
d="M410.633 617.71c33.0215 0.825195 32.8428 -50.1641 0.00976562 -51.1719c-54.3867 -1.66602 -107.566 -9.90918 -159.953 -22.002c-11.2188 -112.073 -16.8311 -224.702 -16.3242 -337.353c0.339844 -74.7822 3.31055 -149.592 8.63672 -224.175
c2.48047 -34.666 5.4834 -69.3154 8.92285 -103.9c1.16406 -11.7207 2.51758 -23.4248 3.81641 -35.1289c15.2793 6.6416 30.5693 13.2783 45.8213 20.001c29.9863 13.2139 56.1768 -30.9082 25.959 -44.4082c-22.2715 -9.94141 -44.8555 -20.1523 -67.6768 -30.2236
c0.415039 -6.22656 0.932617 -11.79 1.60156 -15.2354c19.2949 -4.93262 23.4141 -35.625 0.301758 -43.8955c-29.0049 -10.3838 -40.0947 16.8633 -45.3623 40.3643c-51.4053 -21.6348 -103.83 -41.3018 -156.6 -54.4619
c-22.6436 -5.65039 -38.375 27.8398 -16.3086 38.6816c40.5264 19.9102 83.9043 34.623 125.558 52.0586c12.9287 5.41309 25.8027 10.9609 38.6934 16.4658c-3.94141 27.1885 -7.40234 54.457 -10.6104 81.7256c-9.76367 82.9551 -15.3008 166.455 -17.4951 249.944
c-3.28906 125.218 1.37402 250.246 13.3857 374.735c-57.1963 -16.1309 -113.578 -35.8301 -169.642 -55.6484c-29.5332 -10.4375 -41.8574 36.1426 -12.8633 46.666c61.9834 22.4922 124.527 44.8447 188.145 62.4629c2.79297 24.6113 5.83398 49.2012 9.19238 73.7637
c4.26953 31.2422 59.0557 23.5273 54.9746 -7.44043c-2.26953 -17.2471 -4.38867 -34.5156 -6.39453 -51.7949c50.543 11.2412 101.862 18.665 154.212 19.9697zM147.14 734.518c-26.498 -9.40234 -37.3281 32.166 -11.5205 41.7949
c59.1309 22.0605 118.03 44.8867 177.728 65.3516c27.5332 9.44043 38.1436 -32.8867 11.8555 -43.0117c-58.8613 -22.6758 -118.618 -43.0439 -178.062 -64.1348z" />
    <glyph glyph-name="Ntilde" unicode="&#xd1;" horiz-adv-x="599" 
d="M559.67 283.172c7.41309 -179.615 18.4727 -359.573 21.0068 -539.334c0.523438 -37.2217 -55.2168 -36.5586 -57.3682 0c-11.7588 200.08 -13.5918 401.045 -20.2285 601.362c-2.80371 84.6592 -2.83594 173.146 -20.2012 256.344
c-4.23242 20.293 -9.34375 42.915 -19.8193 61.0137c-4.83594 8.35059 -6.59863 13.5156 -16.1895 12.2383c-8.54004 -1.13184 -16.1035 -11.5635 -21.4678 -17.5967c-26.4336 -29.7432 -45.9717 -65.4336 -63.4883 -100.94
c-73.8711 -149.748 -113.341 -313.664 -153.808 -474.776c-10.0332 -39.9277 -20.0938 -79.8496 -30.7148 -119.626c-5.51562 -20.6484 -11.1924 -41.2539 -16.9072 -61.8486c-3.70898 -13.3545 -6.83008 -27.916 -17.1221 -37.9541
c-24.0127 -23.4248 -52.7588 -4.97559 -64.0107 20.5088c-16.3789 37.0918 -22.1475 78.1465 -28.0186 117.95c-25.5762 173.415 -25.1123 349.197 -14.4375 523.804c1.86035 30.4551 49.1523 30.7139 47.6377 0c-4.9873 -101.06 -6.69141 -202.329 -1.76953 -303.426
c4.49609 -92.4111 9.54785 -191.065 34.1426 -281.008c4.28613 15.1113 8.44238 30.2666 12.5186 45.4375c11.1064 41.3457 21.6465 82.8525 32.2246 124.338c20.708 81.2354 41.4805 162.509 66.7812 242.461c24.7832 78.3135 53.8691 155.641 90.6318 229.183
c16.9551 33.916 36.0674 66.5869 59.7139 96.3037c19.2842 24.2334 44.6445 51.6211 78.6582 47.2598c33.248 -4.25879 48.7207 -36.0938 59.7139 -64.085c14.3945 -36.6602 20.0557 -75.8057 24.6602 -114.703c10.3242 -87.2412 14.2383 -175.173 17.8613 -262.905z
M121.653 751.281c-14.1953 -20.2275 -47.667 -0.952148 -33.3857 19.5127c25.2529 36.1807 68.5664 127.725 125.314 86.1416c11.2891 -8.27051 18.0762 -20.7031 28.4385 -29.8359c13.5967 -11.9795 31.501 -14.9766 49.001 -12.4482
c35.0967 5.07812 62.6943 31.792 87.8174 54.6729c20.2119 18.4111 50.4619 -11.915 30.0186 -30.0186c-41.8525 -37.0811 -92.1689 -75.8926 -151.883 -62.3555c-12.54 2.84668 -24.4492 8.15137 -34.7197 15.8877c-10.7236 8.07617 -16.9668 20.4541 -27.2373 28.5576
c-24.9238 19.667 -60.5117 -51.7998 -73.3643 -70.1143z" />
    <glyph glyph-name="Ograve" unicode="&#xd2;" horiz-adv-x="671" 
d="M611.325 557.22c42.0576 -98.0996 41.7754 -207.658 27.2676 -311.683c-14.918 -107.021 -47.2979 -211.132 -95.3066 -307.942c-39.5557 -79.7637 -100.633 -189.826 -195.982 -210.394c-108.801 -23.4678 -149.182 103.065 -161.199 186.155
c-8.85742 61.2344 -6.80859 122.722 0.0810547 183.875c-41.3779 4.20508 -82.4863 26.5576 -109.442 60.9375c-63.1855 80.5996 -72.9385 197.202 -51.3838 294.261c38.2451 172.202 213.773 341.957 401.39 281.688c84.3467 -27.0967 150.18 -96.6602 184.576 -176.898z
M592.675 295.31c14.125 148.502 -22.0039 348.197 -190.729 392.966c-160.325 42.5371 -298.627 -110.073 -329.033 -253.324c-15.4512 -72.7871 -9.73633 -157.117 27.0322 -223.041c17.2627 -30.9512 43.0439 -58.7266 78.1465 -68.3877
c4.49121 -1.23438 9.10059 -2.13477 13.7637 -2.75488c4.72266 32.5098 10.3994 64.8896 16.1465 97.043c6.22168 34.8223 59.1855 19.9805 53.002 -14.6094c-4.22168 -23.6084 -8.46973 -47.459 -12.3086 -71.4609c6.97656 4.46973 13.1982 10.249 18.2285 17.5166
c14.0498 20.2871 47.3516 1.26172 33.3887 -19.5166c-15.6777 -23.333 -36.1104 -38.3477 -58.5811 -46.3047c-7.80078 -61.6279 -10.8418 -123.806 -1.27246 -184.98c6.35059 -40.6123 16.0928 -93.5117 46.5859 -123.729
c36.1533 -35.8301 84.5508 -1.71387 113.216 26.4229c60.4844 59.3633 100.692 142.367 131.115 220.438c31.6309 81.165 53.0449 166.945 61.2988 253.723zM271.149 800.355c-22.3193 -10.1357 -41.8506 22.7891 -19.3848 33.167
c74.7656 34.5254 153.122 60.0586 234.4 73.7041c25.3008 4.24805 36.1533 -34.3477 10.6797 -38.7471c-77.9795 -13.4678 -153.576 -35.3887 -225.695 -68.124z" />
    <glyph glyph-name="Oslash" unicode="&#xd8;" horiz-adv-x="671" 
d="M669.562 943.493c9.70996 22.8701 42.9648 3.12402 33.3848 -19.5195c-43.5127 -102.859 -83.9902 -207.072 -120.926 -312.487c11.3652 -17.2412 21.2314 -35.4424 29.3018 -54.2686c42.0518 -98.0996 41.7715 -207.655 27.2686 -311.68
c-14.918 -107.021 -47.2979 -211.132 -95.3066 -307.942c-38.9951 -78.6367 -98.9355 -186.656 -191.983 -209.407c-20.6162 -118.932 -33.7812 -239.103 -28.8154 -358.395c1.15918 -27.8027 -40.7852 -27.1777 -42.834 0c-8.9873 119.082 9.30566 238.213 29.5332 355.333
c-80.4434 9.97949 -112.581 115.664 -123.078 188.23c-8.85742 61.2344 -6.80859 122.722 0.0810547 183.875c-41.3779 4.20508 -82.4912 26.5576 -109.442 60.9375c-63.1855 80.5996 -72.9385 197.202 -51.3838 294.261c38.2451 172.202 213.779 341.957 401.39 281.688
c49.6963 -15.9639 92.8906 -46.7373 127.087 -85.6895c35.8037 99.3828 74.4102 197.778 115.724 295.063zM318.971 -220.521c50.5273 276.291 122.874 548.114 215.205 813.165c-30.1152 45.0225 -72.9648 79.9043 -132.23 95.6309
c-160.325 42.5371 -298.627 -110.073 -329.033 -253.324c-15.4512 -72.7871 -9.73633 -157.117 27.0322 -223.041c17.2627 -30.9512 43.0439 -58.7266 78.1465 -68.3877c4.49121 -1.23438 9.10645 -2.13477 13.7646 -2.75488
c4.72852 32.5098 10.4053 64.8896 16.1523 97.043c6.22656 34.8223 59.1846 19.9805 53.001 -14.6094c-4.22168 -23.6084 -8.46973 -47.459 -12.3086 -71.4609c6.97656 4.46973 13.1982 10.249 18.2285 17.5166c14.0498 20.2871 47.3516 1.26172 33.3887 -19.5166
c-15.6777 -23.333 -36.1104 -38.3477 -58.5811 -46.3047c-7.80664 -61.6279 -10.8477 -123.806 -1.27832 -184.98c6.35645 -40.6123 16.0928 -93.5117 46.5859 -123.729c9.94141 -9.84961 20.8047 -14.3887 31.9268 -15.2461zM592.67 295.306
c7.55859 79.3975 0.714844 173.408 -33.0449 250.568c-60.8184 -181.286 -112.127 -365.861 -153.715 -552.479c-14.7881 -66.3447 -29.7383 -133.633 -42.8818 -201.455c13.9746 8.14648 26.8867 19.0586 37.2275 29.2051c60.4844 59.3633 100.692 142.367 131.115 220.438
c31.6309 81.165 53.0449 166.945 61.2988 253.723z" />
    <glyph glyph-name="Ugrave" unicode="&#xd9;" horiz-adv-x="637" 
d="M631.131 -137.633c13.4297 -34.7031 -42.5039 -49.7344 -55.6797 -15.3438c-27.3496 71.3535 -48.7422 145.02 -64.3018 219.92c-25.1074 -65.3262 -54.4521 -129.688 -94.6543 -186.614c-44.9092 -63.5898 -109.75 -129.477 -194.608 -99.2588
c-82.3193 29.3174 -116.942 117.41 -139.839 194.554c-27.5273 92.751 -37.7979 190.042 -45.1621 286.185c-7.81152 101.971 -10.9385 204.825 -4.16699 306.925c1.63379 24.6592 37.5615 24.9287 38.5371 0c7.38086 -188.921 6.11914 -386.289 58.9316 -569.43
c18.0557 -62.6084 46.5859 -156.864 121.428 -171.372c74 -14.3457 129.826 87.1875 159.268 140.378c32.8916 59.4336 61.1689 123.164 84.3994 188.916c-15.4189 108.478 -18.54 218.707 -8.85742 327.729c3.99512 45.0166 8.54004 91.2734 24.9404 133.735
c11.0791 28.6924 37.5557 70.458 73.165 44.7529c32.3047 -23.3223 29.8838 -78.0166 29.7539 -112.968c-0.172852 -47.1953 -3.89844 -94.2451 -10.3301 -140.981c-11.1172 -80.7988 -30.623 -160.293 -55.7246 -237.879
c16.2012 -105.593 44.1816 -209.181 82.9014 -309.248zM532.58 340.669c0.506836 -16.3516 1.38086 -32.6631 2.4541 -48.9551c10.0332 41.6641 18.0986 83.5107 23.9482 125.013c6.2373 44.2627 9.56934 89.0371 9.62305 133.741
c0.0273438 19.6777 0.921875 40.6982 -4.39941 59.8213c-5.19141 18.6533 -2.59863 9.26758 -7.72559 -4.04297c-3.41309 -8.85742 -6.07129 -18.0439 -8.40039 -27.2412c-19.2197 -75.9521 -17.8936 -160.535 -15.5 -238.336zM150.341 720.049
c-22.0879 -11.5322 -41.54 21.4502 -19.5811 33.4893c79.5801 43.6426 160.6 82.6807 246.752 111.713c26.9883 9.09473 37.5664 -32.4502 11.624 -42.1543c-81.1006 -30.3311 -161.97 -62.9316 -238.795 -103.048z" />
    <glyph glyph-name="germandbls" unicode="&#xdf;" horiz-adv-x="653" 
d="M609.966 152.832c68.2266 -89.4033 2.68164 -191.966 -66.6064 -256.591c-160.109 -149.349 -373.792 -221.915 -580.002 -282.017c-36.3047 -10.583 -51.5029 45.6045 -15.5537 56.4141c41.5234 12.4863 83.4404 25.1992 125.195 38.8174
c-3.33203 2.61523 -5.86621 6.62598 -6.83105 12.3838c-19.6084 117.104 -30.9893 235.867 -33.8086 354.842c-10.6367 15.1387 -11.5752 35.1133 -0.658203 53.9824c-0.226562 130.506 9.89844 261.012 31.1182 389.609c5.2998 32.1152 52.7754 17.9795 48.3711 -13.3379
c-15.3379 -109.092 -24.5195 -218.551 -27.3066 -328.079c28.8428 18.3896 61.8105 31.6846 92.6699 42.5371c52.9902 18.6318 109.582 27.9209 165.727 28.4004c11.9199 0.102539 24.2764 -0.162109 36.8809 -0.852539c45.3027 36.3857 86.4053 78.0498 118.354 126.518
c24.5244 37.2051 51.9717 86.9824 28.541 131.153c-17.9316 33.7979 -56.2852 54.0312 -90.999 66.2637c-90.9453 32.0352 -189.417 30.127 -283.947 18.7461c-96.3799 -11.6016 -192.754 -33.7979 -276.496 -84.6211c-26.5195 -16.0986 -50.5322 25.3438 -24.2334 41.458
c111.938 68.5928 248.3 92.8428 377.852 98.9297c107.232 5.04102 257.174 -5.36426 328.818 -98.3848c69.2021 -89.8506 -7.29395 -201.18 -69.8213 -270.867c-11.71 -13.0527 -24.1152 -25.6953 -37.0059 -37.9717c62.2959 -12.4326 122.489 -38.5098 159.743 -87.333z
M82.9834 110.01c0 -0.835938 0.0117188 -1.6709 0.00585938 -2.49609c2.67383 -0.350586 5.83301 -0.949219 7.56934 -0.992188c11.0732 -0.286133 22.6592 1.70312 33.4199 3.83789c21.2627 4.21582 42.0137 11.0576 61.9668 19.4736
c41.9492 17.6836 81.6562 41.7393 119.815 66.4043c1.83301 1.18066 3.65527 2.4043 5.4834 3.60156c-81.0469 -5.66602 -170.773 -32.207 -228.261 -89.8291zM484.391 -82.0527c55.6221 47.3408 143.57 134.054 80.3525 209.386
c-37.874 45.125 -101.367 64.3066 -162.472 70.873c-54.042 -43.4697 -114.311 -80.5293 -175.14 -109.459c-41.6582 -19.8184 -95.2959 -41.4971 -143.526 -37.0488c2.19922 -106.148 10.4961 -212.254 25.4512 -318.041
c0.673828 -4.76074 -0.0751953 -9.03027 -1.68164 -12.7607c135.477 46.1328 267.578 103.911 377.016 197.051z" />
    <glyph glyph-name="agrave" unicode="&#xe0;" horiz-adv-x="265" 
d="M208.592 252.495c15.3809 3.06738 35.668 -7.24609 33.8457 -25.7812c-6.13477 -62.1934 -7.13184 -124.382 -5.87598 -186.823c0.716797 -35.7227 -54.29 -35.5176 -55.3467 0c-1.02441 34.4287 -0.361328 68.8301 1.41797 103.188
c-1.16992 -1.53125 -2.31836 -3.08887 -3.49902 -4.62012c-16.5615 -21.4893 -33.3984 -43.0811 -52.5049 -62.3926c-27.7539 -28.0557 -86.7178 -68.7646 -108.962 -11.418c-17.7266 45.6963 18.7666 101.307 47.2754 134.651
c28.1045 32.8594 74.9648 54.3008 115.938 34.7139c7.6875 9.08398 16.5996 16.2656 27.7109 18.4814zM152.221 191.245c0.0859375 0.113281 0.166016 0.243164 0.251953 0.361328c-25.7432 -2.54492 -44.9688 -22.04 -59.6113 -44.5967
c-9.54785 -14.7021 -20.7617 -31.9111 -24.0068 -49.4814c3.6123 4.86328 12.0332 9.48926 16.3789 13.6836c24.9404 24.0879 46.6621 52.0361 66.9873 80.0332zM89.0664 270.411c-23.835 -9.0625 -33.5283 28.6699 -10.4482 37.8887
c33.124 13.2412 65.9678 27.1992 99.0645 40.5264c25.4248 10.2383 37.1074 -31.6035 11.3857 -41.3076c-33.2637 -12.5508 -66.7754 -24.4707 -100.002 -37.1074z" />
    </font>
</defs>
</svg>
